  0
SECTION
  2
HEADER
  9
$ACADVER
  1
AC1015
  9
$ACADMAINTVER
 70
     6
  9
$DWGCODEPAGE
  3
ANSI_1252
  9
$INSBASE
 10
0.0
 20
0.0
 30
0.0
  9
$EXTMIN
 10
0.0
 20
-0.847858
 30
0.0
  9
$EXTMAX
 10
210.0
 20
297.837128
 30
0.0
  9
$LIMMIN
 10
0.0
 20
-0.847858
  9
$LIMMAX
 10
210.0
 20
297.837128
  9
$ORTHOMODE
 70
     0
  9
$REGENMODE
 70
     1
  9
$FILLMODE
 70
     1
  9
$QTEXTMODE
 70
     0
  9
$MIRRTEXT
 70
     1
  9
$LTSCALE
 40
1.0
  9
$ATTMODE
 70
     1
  9
$TEXTSIZE
 40
2.5
  9
$TRACEWID
 40
1.0
  9
$TEXTSTYLE
  7
Standard
  9
$CLAYER
  8
0
  9
$CELTYPE
  6
ByLayer
  9
$CECOLOR
 62
   256
  9
$CELTSCALE
 40
1.0
  9
$DISPSILH
 70
     0
  9
$DIMSCALE
 40
1.0
  9
$DIMASZ
 40
2.5
  9
$DIMEXO
 40
0.625
  9
$DIMDLI
 40
3.75
  9
$DIMRND
 40
0.0
  9
$DIMDLE
 40
0.0
  9
$DIMEXE
 40
1.25
  9
$DIMTP
 40
0.0
  9
$DIMTM
 40
0.0
  9
$DIMTXT
 40
2.5
  9
$DIMCEN
 40
2.5
  9
$DIMTSZ
 40
0.0
  9
$DIMTOL
 70
     0
  9
$DIMLIM
 70
     0
  9
$DIMTIH
 70
     0
  9
$DIMTOH
 70
     0
  9
$DIMSE1
 70
     0
  9
$DIMSE2
 70
     0
  9
$DIMTAD
 70
     1
  9
$DIMZIN
 70
     8
  9
$DIMBLK
  1

  9
$DIMASO
 70
     1
  9
$DIMSHO
 70
     1
  9
$DIMPOST
  1

  9
$DIMAPOST
  1

  9
$DIMALT
 70
     0
  9
$DIMALTD
 70
     3
  9
$DIMALTF
 40
0.03937
  9
$DIMLFAC
 40
1.0
  9
$DIMTOFL
 70
     1
  9
$DIMTVP
 40
0.0
  9
$DIMTIX
 70
     0
  9
$DIMSOXD
 70
     0
  9
$DIMSAH
 70
     0
  9
$DIMBLK1
  1

  9
$DIMBLK2
  1

  9
$DIMSTYLE
  2
ISO-25
  9
$DIMCLRD
 70
     0
  9
$DIMCLRE
 70
     0
  9
$DIMCLRT
 70
     0
  9
$DIMTFAC
 40
1.0
  9
$DIMGAP
 40
0.625
  9
$DIMJUST
 70
     0
  9
$DIMSD1
 70
     0
  9
$DIMSD2
 70
     0
  9
$DIMTOLJ
 70
     0
  9
$DIMTZIN
 70
     8
  9
$DIMALTZ
 70
     0
  9
$DIMALTTZ
 70
     0
  9
$DIMUPT
 70
     0
  9
$DIMDEC
 70
     2
  9
$DIMTDEC
 70
     2
  9
$DIMALTU
 70
     2
  9
$DIMALTTD
 70
     3
  9
$DIMTXSTY
  7
Standard
  9
$DIMAUNIT
 70
     0
  9
$DIMADEC
 70
     0
  9
$DIMALTRND
 40
0.0
  9
$DIMAZIN
 70
     0
  9
$DIMDSEP
 70
    44
  9
$DIMATFIT
 70
     3
  9
$DIMFRAC
 70
     0
  9
$DIMLDRBLK
  1

  9
$DIMLUNIT
 70
     2
  9
$DIMLWD
 70
    -2
  9
$DIMLWE
 70
    -2
  9
$DIMTMOVE
 70
     0
  9
$LUNITS
 70
     2
  9
$LUPREC
 70
     4
  9
$SKETCHINC
 40
1.0
  9
$FILLETRAD
 40
10.0
  9
$AUNITS
 70
     0
  9
$AUPREC
 70
     0
  9
$MENU
  1
.
  9
$ELEVATION
 40
0.0
  9
$PELEVATION
 40
0.0
  9
$THICKNESS
 40
0.0
  9
$LIMCHECK
 70
     0
  9
$CHAMFERA
 40
0.0
  9
$CHAMFERB
 40
0.0
  9
$CHAMFERC
 40
0.0
  9
$CHAMFERD
 40
0.0
  9
$SKPOLY
 70
     0
  9
$TDCREATE
 40
2459088.361418009
  9
$TDUCREATE
 40
2459088.278084676
  9
$TDUPDATE
 40
2459088.361427766
  9
$TDUUPDATE
 40
2459088.278094433
  9
$TDINDWG
 40
0.0000000116
  9
$TDUSRTIMER
 40
0.0000000116
  9
$USRTIMER
 70
     1
  9
$ANGBASE
 50
0.0
  9
$ANGDIR
 70
     0
  9
$PDMODE
 70
     0
  9
$PDSIZE
 40
0.0
  9
$PLINEWID
 40
0.0
  9
$SPLFRAME
 70
     0
  9
$SPLINETYPE
 70
     6
  9
$SPLINESEGS
 70
     8
  9
$HANDSEED
  5
307
  9
$SURFTAB1
 70
     6
  9
$SURFTAB2
 70
     6
  9
$SURFTYPE
 70
     6
  9
$SURFU
 70
     6
  9
$SURFV
 70
     6
  9
$UCSBASE
  2

  9
$UCSNAME
  2

  9
$UCSORG
 10
0.0
 20
0.0
 30
0.0
  9
$UCSXDIR
 10
1.0
 20
0.0
 30
0.0
  9
$UCSYDIR
 10
0.0
 20
1.0
 30
0.0
  9
$UCSORTHOREF
  2

  9
$UCSORTHOVIEW
 70
     0
  9
$UCSORGTOP
 10
0.0
 20
0.0
 30
0.0
  9
$UCSORGBOTTOM
 10
0.0
 20
0.0
 30
0.0
  9
$UCSORGLEFT
 10
0.0
 20
0.0
 30
0.0
  9
$UCSORGRIGHT
 10
0.0
 20
0.0
 30
0.0
  9
$UCSORGFRONT
 10
0.0
 20
0.0
 30
0.0
  9
$UCSORGBACK
 10
0.0
 20
0.0
 30
0.0
  9
$PUCSBASE
  2

  9
$PUCSNAME
  2

  9
$PUCSORG
 10
0.0
 20
0.0
 30
0.0
  9
$PUCSXDIR
 10
1.0
 20
0.0
 30
0.0
  9
$PUCSYDIR
 10
0.0
 20
1.0
 30
0.0
  9
$PUCSORTHOREF
  2

  9
$PUCSORTHOVIEW
 70
     0
  9
$PUCSORGTOP
 10
0.0
 20
0.0
 30
0.0
  9
$PUCSORGBOTTOM
 10
0.0
 20
0.0
 30
0.0
  9
$PUCSORGLEFT
 10
0.0
 20
0.0
 30
0.0
  9
$PUCSORGRIGHT
 10
0.0
 20
0.0
 30
0.0
  9
$PUCSORGFRONT
 10
0.0
 20
0.0
 30
0.0
  9
$PUCSORGBACK
 10
0.0
 20
0.0
 30
0.0
  9
$USERI1
 70
     0
  9
$USERI2
 70
     0
  9
$USERI3
 70
     0
  9
$USERI4
 70
     0
  9
$USERI5
 70
     0
  9
$USERR1
 40
0.0
  9
$USERR2
 40
0.0
  9
$USERR3
 40
0.0
  9
$USERR4
 40
0.0
  9
$USERR5
 40
0.0
  9
$WORLDVIEW
 70
     1
  9
$SHADEDGE
 70
     3
  9
$SHADEDIF
 70
    70
  9
$TILEMODE
 70
     1
  9
$MAXACTVP
 70
    64
  9
$PINSBASE
 10
0.0
 20
0.0
 30
0.0
  9
$PLIMCHECK
 70
     0
  9
$PEXTMIN
 10
1.000000E+20
 20
1.000000E+20
 30
1.000000E+20
  9
$PEXTMAX
 10
-1.000000E+20
 20
-1.000000E+20
 30
-1.000000E+20
  9
$PLIMMIN
 10
0.0
 20
0.0
  9
$PLIMMAX
 10
420.0
 20
297.0
  9
$UNITMODE
 70
     0
  9
$VISRETAIN
 70
     1
  9
$PLINEGEN
 70
     0
  9
$PSLTSCALE
 70
     1
  9
$TREEDEPTH
 70
  3020
  9
$CMLSTYLE
  2
Standard
  9
$CMLJUST
 70
     0
  9
$CMLSCALE
 40
20.0
  9
$PROXYGRAPHICS
 70
     1
  9
$MEASUREMENT
 70
     1
  9
$CELWEIGHT
370
    -1
  9
$ENDCAPS
280
     0
  9
$JOINSTYLE
280
     0
  9
$LWDISPLAY
290
     0
  9
$INSUNITS
 70
     4
  9
$HYPERLINKBASE
  1

  9
$STYLESHEET
  1

  9
$XEDIT
290
     1
  9
$CEPSNTYPE
380
     0
  9
$PSTYLEMODE
290
     1
  9
$FINGERPRINTGUID
  2
{742d65ad-dfac-4780-99b9-08c2a95db5f6}
  9
$VERSIONGUID
  2
{FAEB1C32-E019-11D5-929B-00C0DF256EC4}
  9
$EXTNAMES
290
     1
  9
$PSVPSCALE
 40
0.0
  9
$OLESTARTUP
290
     0
  0
ENDSEC
  0
SECTION
  2
CLASSES
  0
CLASS
  1
ACDBDICTIONARYWDFLT
  2
AcDbDictionaryWithDefault
  3
ObjectDBX Classes
 90
        0
280
     0
281
     0
  0
CLASS
  1
VISUALSTYLE
  2
AcDbVisualStyle
  3
ObjectDBX Classes
 90
     4095
280
     0
281
     0
  0
CLASS
  1
MATERIAL
  2
AcDbMaterial
  3
ObjectDBX Classes
 90
     1153
280
     0
281
     0
  0
CLASS
  1
SCALE
  2
AcDbScale
  3
ObjectDBX Classes
 90
     1153
280
     0
281
     0
  0
CLASS
  1
TABLESTYLE
  2
AcDbTableStyle
  3
ObjectDBX Classes
 90
     4095
280
     0
281
     0
  0
CLASS
  1
MLEADERSTYLE
  2
AcDbMLeaderStyle
  3
ACDB_MLEADERSTYLE_CLASS
 90
     4095
280
     0
281
     0
  0
CLASS
  1
SUN
  2
AcDbSun
  3
SCENEOE
 90
     1153
280
     0
281
     0
  0
CLASS
  1
IMAGEDEF
  2
AcDbRasterImageDef
  3
ISM
 90
        0
280
     0
281
     0
  0
CLASS
  1
IMAGE
  2
AcDbRasterImage
  3
ISM
 90
      127
280
     0
281
     1
  0
CLASS
  1
RASTERVARIABLES
  2
AcDbRasterVariables
  3
ISM
 90
        0
280
     0
281
     0
  0
CLASS
  1
IMAGEDEF_REACTOR
  2
AcDbRasterImageDefReactor
  3
ISM
 90
        1
280
     0
281
     0
  0
CLASS
  1
DICTIONARYVAR
  2
AcDbDictionaryVar
  3
ObjectDBX Classes
 90
        0
280
     0
281
     0
  0
CLASS
  1
ACDBPLACEHOLDER
  2
AcDbPlaceHolder
  3
ObjectDBX Classes
 90
        0
280
     0
281
     0
  0
CLASS
  1
LAYOUT
  2
AcDbLayout
  3
ObjectDBX Classes
 90
        0
280
     0
281
     0
  0
ENDSEC
  0
SECTION
  2
TABLES
  0
TABLE
  2
VPORT
  5
8
102
{ACAD_XDICTIONARY
360
2C9
102
}
330
0
100
AcDbSymbolTable
 70
     1
  0
VPORT
  5
29
330
8
100
AcDbSymbolTableRecord
100
AcDbViewportTableRecord
  2
*Active
 70
     0
 10
0.0
 20
0.0
 11
1.0
 21
1.0
 12
344.186916
 22
148.5
 13
0.0
 23
0.0
 14
10.0
 24
10.0
 15
10.0
 25
10.0
 16
0.0
 26
0.0
 36
1.0
 17
0.0
 27
0.0
 37
0.0
 40
297.0
 41
1.972973
 42
50.0
 43
0.0
 44
0.0
 50
0.0
 51
0.0
 71
     0
 72
   100
 73
     1
 74
     3
 75
     0
 76
     0
 77
     0
 78
     0
281
     0
 65
     1
110
0.0
120
0.0
130
0.0
111
1.0
121
0.0
131
0.0
112
0.0
122
1.0
132
0.0
 79
     0
146
0.0
  0
ENDTAB
  0
TABLE
  2
LTYPE
  5
5
330
0
100
AcDbSymbolTable
 70
     2
  0
LTYPE
  5
14
330
5
100
AcDbSymbolTableRecord
100
AcDbLinetypeTableRecord
  2
ByBlock
 70
     0
  3

 72
    65
 73
     0
 40
0.0
  0
LTYPE
  5
15
330
5
100
AcDbSymbolTableRecord
100
AcDbLinetypeTableRecord
  2
ByLayer
 70
     0
  3

 72
    65
 73
     0
 40
0.0
  0
LTYPE
  5
16
330
5
100
AcDbSymbolTableRecord
100
AcDbLinetypeTableRecord
  2
Continuous
 70
     0
  3
Solid line
 72
    65
 73
     0
 40
0.0
  0
LTYPE
  5
1ED
330
5
100
AcDbSymbolTableRecord
100
AcDbLinetypeTableRecord
  2
CENTER2
 70
     0
  3
Center (.5x) ___ _ ___ _ ___ _ ___ _ ___ _ ___
 72
    65
 73
     4
 40
28.575
 49
19.05
 74
     0
 49
-3.175
 74
     0
 49
3.175
 74
     0
 49
-3.175
 74
     0
  0
ENDTAB
  0
TABLE
  2
LAYER
  5
2
330
0
100
AcDbSymbolTable
 70
     3
  0
LAYER
  5
10
330
2
100
AcDbSymbolTableRecord
100
AcDbLayerTableRecord
  2
0
 70
     0
 62
   106
  6
Continuous
370
     0
390
F
  0
LAYER
  5
6E
330
2
100
AcDbSymbolTableRecord
100
AcDbLayerTableRecord
  2
1023
 70
     0
 62
   160
  6
Continuous
370
     0
390
F
  0
LAYER
  5
1B1
330
2
100
AcDbSymbolTableRecord
100
AcDbLayerTableRecord
  2
Defpoints
 70
     0
 62
     7
  6
Continuous
290
     0
370
    -3
390
F
  0
ENDTAB
  0
TABLE
  2
STYLE
  5
3
330
0
100
AcDbSymbolTable
 70
     6
  0
STYLE
  5
11
330
3
100
AcDbSymbolTableRecord
100
AcDbTextStyleTableRecord
  2
Standard
 70
     0
 40
0.0
 41
1.0
 50
0.0
 71
     0
 42
2.5
  3
txt
  4

  0
STYLE
  5
6F
330
3
100
AcDbSymbolTableRecord
100
AcDbTextStyleTableRecord
  2
Default
 70
     0
 40
0.0
 41
1.0
 50
0.0
 71
     0
 42
2.5
  3

  4

1001
ACAD
1000
txt
1071
        0
  0
STYLE
  5
70
330
3
100
AcDbSymbolTableRecord
100
AcDbTextStyleTableRecord
  2
ISO
 70
     0
 40
0.0
 41
1.0
 50
0.0
 71
     0
 42
2.5
  3

  4

1001
ACAD
1000
txt
1071
        0
  0
STYLE
  5
71
330
3
100
AcDbSymbolTableRecord
100
AcDbTextStyleTableRecord
  2
zucchetti
 70
     0
 40
0.0
 41
1.0
 50
0.0
 71
     0
 42
2.5
  3

  4

1001
ACAD
1000
Arial
1071
        0
  0
STYLE
  5
72
330
3
100
AcDbSymbolTableRecord
100
AcDbTextStyleTableRecord
  2
ANSI
 70
     0
 40
0.0
 41
1.0
 50
0.0
 71
     0
 42
2.5
  3

  4

1001
ACAD
1000
txt
1071
        0
  0
STYLE
  5
73
330
3
100
AcDbSymbolTableRecord
100
AcDbTextStyleTableRecord
  2
ROMANS
 70
     0
 40
0.0
 41
1.0
 50
0.0
 71
     0
 42
2.5
  3

  4

1001
ACAD
1000
ROMANS
1071
        0
  0
ENDTAB
  0
TABLE
  2
VIEW
  5
6
330
0
100
AcDbSymbolTable
 70
     0
  0
ENDTAB
  0
TABLE
  2
UCS
  5
7
330
0
100
AcDbSymbolTable
 70
     0
  0
ENDTAB
  0
TABLE
  2
APPID
  5
9
330
0
100
AcDbSymbolTable
 70
     2
  0
APPID
  5
12
330
9
100
AcDbSymbolTableRecord
100
AcDbRegAppTableRecord
  2
ACAD
 70
     0
  0
APPID
  5
303
330
9
100
AcDbSymbolTableRecord
100
AcDbRegAppTableRecord
  2
ACAD_MLEADERVER
 70
     0
  0
ENDTAB
  0
TABLE
  2
DIMSTYLE
  5
A
330
0
100
AcDbSymbolTable
 70
     4
100
AcDbDimStyleTable
  0
DIMSTYLE
105
27
330
A
100
AcDbSymbolTableRecord
100
AcDbDimStyleTableRecord
  2
ISO-25
 70
     0
 41
2.5
 42
0.625
 43
3.75
 44
1.25
 73
     0
 74
     0
 77
     1
 78
     8
140
2.5
141
2.5
143
0.03937
147
0.625
171
     3
172
     1
178
     0
271
     2
272
     2
274
     3
278
    44
283
     0
284
     8
340
11
  0
DIMSTYLE
105
74
330
A
100
AcDbSymbolTableRecord
100
AcDbDimStyleTableRecord
  2
Default
 70
     0
  3
<>
 41
4.375
 42
1.05
 44
2.1
 73
     0
 74
     0
 77
     1
 78
     8
140
3.5
146
0.4
147
1.75
172
     1
271
     2
178
     3
271
     2
272
     3
284
     8
340
6F
341
75
342
75
  0
DIMSTYLE
105
7C
330
A
100
AcDbSymbolTableRecord
100
AcDbDimStyleTableRecord
  2
ISO
 70
     0
  3
<>
 41
4.375
 42
1.05
 44
2.1
 73
     0
 74
     0
 77
     1
 78
     8
140
3.5
146
0.4
147
1.75
172
     1
271
     2
178
     3
271
     2
272
     3
284
     8
340
70
341
75
342
75
  0
DIMSTYLE
105
7D
102
{ACAD_REACTORS
330
1B2
330
1E0
330
1EF
330
22B
330
254
102
}
330
A
100
AcDbSymbolTableRecord
100
AcDbDimStyleTableRecord
  2
zucchetti
 70
     0
  3
<>
 41
3.0
 42
0.9
 44
1.8
 73
     0
 74
     0
 77
     1
 78
     8
140
3.0
146
0.6
147
1.5
172
     1
176
     3
177
     3
271
     2
178
     3
271
     2
272
     2
284
     8
340
71
  0
ENDTAB
  0
TABLE
  2
BLOCK_RECORD
  5
1
330
0
100
AcDbSymbolTable
 70
    13
  0
BLOCK_RECORD
  5
1F
330
1
100
AcDbSymbolTableRecord
100
AcDbBlockTableRecord
  2
*Model_Space
340
22
  0
BLOCK_RECORD
  5
1B
330
1
100
AcDbSymbolTableRecord
100
AcDbBlockTableRecord
  2
*Paper_Space
340
1E
  0
BLOCK_RECORD
  5
23
330
1
100
AcDbSymbolTableRecord
100
AcDbBlockTableRecord
  2
*Paper_Space0
340
26
  0
BLOCK_RECORD
  5
75
330
1
100
AcDbSymbolTableRecord
100
AcDbBlockTableRecord
  2
_Closed
340
0
  0
BLOCK_RECORD
  5
7E
330
1
100
AcDbSymbolTableRecord
100
AcDbBlockTableRecord
  2
FORMAT
340
0
102
{BLKREFS
331
1AF
102
}
  0
BLOCK_RECORD
  5
A3
330
1
100
AcDbSymbolTableRecord
100
AcDbBlockTableRecord
  2
TITLE_BLOCK
340
0
102
{BLKREFS
331
1AC
102
}
  0
BLOCK_RECORD
  5
1B0
330
1
100
AcDbSymbolTableRecord
100
AcDbBlockTableRecord
  2
a
340
0
102
{BLKREFS
331
1FE
102
}
  0
BLOCK_RECORD
  5
1B3
330
1
100
AcDbSymbolTableRecord
100
AcDbBlockTableRecord
  2
*D5
340
0
  0
BLOCK_RECORD
  5
1E1
330
1
100
AcDbSymbolTableRecord
100
AcDbBlockTableRecord
  2
*D6
340
0
  0
BLOCK_RECORD
  5
1F0
330
1
100
AcDbSymbolTableRecord
100
AcDbBlockTableRecord
  2
*D7
340
0
  0
BLOCK_RECORD
  5
1FF
330
1
100
AcDbSymbolTableRecord
100
AcDbBlockTableRecord
  2
b
340
0
102
{BLKREFS
331
227
102
}
  0
BLOCK_RECORD
  5
228
330
1
100
AcDbSymbolTableRecord
100
AcDbBlockTableRecord
  2
c
340
0
102
{BLKREFS
331
263
102
}
  0
BLOCK_RECORD
  5
22C
330
1
100
AcDbSymbolTableRecord
100
AcDbBlockTableRecord
  2
*D10
340
0
  0
BLOCK_RECORD
  5
255
330
1
100
AcDbSymbolTableRecord
100
AcDbBlockTableRecord
  2
*D11
340
0
  0
BLOCK_RECORD
  5
264
330
1
100
AcDbSymbolTableRecord
100
AcDbBlockTableRecord
  2
d
340
0
102
{BLKREFS
331
2A8
102
}
  0
ENDTAB
  0
ENDSEC
  0
SECTION
  2
BLOCKS
  0
BLOCK
  5
20
330
1F
100
AcDbEntity
  8
0
100
AcDbBlockBegin
  2
*Model_Space
 70
     0
 10
0.0
 20
0.0
 30
0.0
  3
*Model_Space
  1

  0
ENDBLK
  5
21
330
1F
100
AcDbEntity
  8
0
100
AcDbBlockEnd
  0
BLOCK
  5
1C
330
1B
100
AcDbEntity
 67
     1
  8
0
100
AcDbBlockBegin
  2
*Paper_Space
 70
     0
 10
0.0
 20
0.0
 30
0.0
  3
*Paper_Space
  1

  0
ENDBLK
  5
1D
330
1B
100
AcDbEntity
 67
     1
  8
0
100
AcDbBlockEnd
  0
BLOCK
  5
24
330
23
100
AcDbEntity
  8
0
100
AcDbBlockBegin
  2
*Paper_Space0
 70
     0
 10
0.0
 20
0.0
 30
0.0
  3
*Paper_Space0
  1

  0
ENDBLK
  5
25
330
23
100
AcDbEntity
  8
0
100
AcDbBlockEnd
  0
BLOCK
  5
76
330
75
100
AcDbEntity
  8
0
100
AcDbBlockBegin
  2
_Closed
 70
     0
 10
0.0
 20
0.0
 30
0.0
  3
_Closed
  1

  0
LINE
  5
78
330
75
100
AcDbEntity
  8
0
  6
ByBlock
 62
     0
370
    -2
100
AcDbLine
 10
-1.0
 20
0.166667
 30
0.0
 11
0.0
 21
0.0
 31
0.0
  0
LINE
  5
79
330
75
100
AcDbEntity
  8
0
  6
ByBlock
 62
     0
370
    -2
100
AcDbLine
 10
0.0
 20
0.0
 30
0.0
 11
-1.0
 21
-0.166667
 31
0.0
  0
LINE
  5
7A
330
75
100
AcDbEntity
  8
0
  6
ByBlock
 62
     0
370
    -2
100
AcDbLine
 10
-1.0
 20
0.166667
 30
0.0
 11
-1.0
 21
-0.166667
 31
0.0
  0
LINE
  5
7B
330
75
100
AcDbEntity
  8
0
  6
ByBlock
 62
     0
370
    -2
100
AcDbLine
 10
0.0
 20
0.0
 30
0.0
 11
-1.0
 21
0.0
 31
0.0
  0
ENDBLK
  5
77
330
75
100
AcDbEntity
  8
0
100
AcDbBlockEnd
  0
BLOCK
  5
1AD
330
7E
100
AcDbEntity
  8
0
100
AcDbBlockBegin
  2
FORMAT
 70
     0
 10
0.0
 20
0.0
 30
0.0
  3
FORMAT
  1

  0
LINE
  5
7F
330
7E
100
AcDbEntity
  8
0
  6
Continuous
 62
     0
370
     0
100
AcDbLine
 10
0.0
 20
297.0
 30
0.0
 11
0.0
 21
0.0
 31
0.0
  0
LINE
  5
80
330
7E
100
AcDbEntity
  8
0
  6
Continuous
 62
     0
370
     0
100
AcDbLine
 10
0.0
 20
0.0
 30
0.0
 11
210.0
 21
0.0
 31
0.0
  0
LINE
  5
81
330
7E
100
AcDbEntity
  8
0
  6
Continuous
 62
     0
370
     0
100
AcDbLine
 10
210.0
 20
0.0
 30
0.0
 11
210.0
 21
297.0
 31
0.0
  0
LINE
  5
82
330
7E
100
AcDbEntity
  8
0
  6
Continuous
 62
     0
370
     0
100
AcDbLine
 10
210.0
 20
297.0
 30
0.0
 11
0.0
 21
297.0
 31
0.0
  0
LINE
  5
83
330
7E
100
AcDbEntity
  8
0
  6
Continuous
 62
     0
370
     0
100
AcDbLine
 10
205.0
 20
292.0
 30
0.0
 11
205.0
 21
5.0
 31
0.0
  0
LINE
  5
84
330
7E
100
AcDbEntity
  8
0
  6
Continuous
 62
     0
370
     0
100
AcDbLine
 10
5.0
 20
5.0
 30
0.0
 11
5.0
 21
292.0
 31
0.0
  0
LINE
  5
85
330
7E
100
AcDbEntity
  8
0
  6
Continuous
 62
     0
370
     0
100
AcDbLine
 10
5.0
 20
292.0
 30
0.0
 11
205.0
 21
292.0
 31
0.0
  0
LINE
  5
86
330
7E
100
AcDbEntity
  8
0
  6
Continuous
 62
     0
370
     0
100
AcDbLine
 10
205.0
 20
5.0
 30
0.0
 11
5.0
 21
5.0
 31
0.0
  0
LINE
  5
87
330
7E
100
AcDbEntity
  8
0
  6
Continuous
 62
     0
370
     0
100
AcDbLine
 10
5.0
 20
222.75
 30
0.0
 11
0.0
 21
222.75
 31
0.0
  0
LINE
  5
88
330
7E
100
AcDbEntity
  8
0
  6
Continuous
 62
     0
370
     0
100
AcDbLine
 10
5.0
 20
148.5
 30
0.0
 11
0.0
 21
148.5
 31
0.0
  0
LINE
  5
89
330
7E
100
AcDbEntity
  8
0
  6
Continuous
 62
     0
370
     0
100
AcDbLine
 10
5.0
 20
74.25
 30
0.0
 11
0.0
 21
74.25
 31
0.0
  0
LINE
  5
8A
330
7E
100
AcDbEntity
  8
0
  6
Continuous
 62
     0
370
     0
100
AcDbLine
 10
52.5
 20
5.0
 30
0.0
 11
52.5
 21
0.0
 31
0.0
  0
LINE
  5
8B
330
7E
100
AcDbEntity
  8
0
  6
Continuous
 62
     0
370
     0
100
AcDbLine
 10
105.0
 20
5.0
 30
0.0
 11
105.0
 21
0.0
 31
0.0
  0
LINE
  5
8C
330
7E
100
AcDbEntity
  8
0
  6
Continuous
 62
     0
370
     0
100
AcDbLine
 10
157.5
 20
5.0
 30
0.0
 11
157.5
 21
0.0
 31
0.0
  0
LINE
  5
8D
330
7E
100
AcDbEntity
  8
0
  6
Continuous
 62
     0
370
     0
100
AcDbLine
 10
157.5
 20
297.0
 30
0.0
 11
157.5
 21
292.0
 31
0.0
  0
LINE
  5
8E
330
7E
100
AcDbEntity
  8
0
  6
Continuous
 62
     0
370
     0
100
AcDbLine
 10
105.0
 20
297.0
 30
0.0
 11
105.0
 21
292.0
 31
0.0
  0
LINE
  5
8F
330
7E
100
AcDbEntity
  8
0
  6
Continuous
 62
     0
370
     0
100
AcDbLine
 10
52.5
 20
297.0
 30
0.0
 11
52.5
 21
292.0
 31
0.0
  0
LINE
  5
90
330
7E
100
AcDbEntity
  8
0
  6
Continuous
 62
     0
370
     0
100
AcDbLine
 10
210.0
 20
74.25
 30
0.0
 11
205.0
 21
74.25
 31
0.0
  0
LINE
  5
91
330
7E
100
AcDbEntity
  8
0
  6
Continuous
 62
     0
370
     0
100
AcDbLine
 10
210.0
 20
148.5
 30
0.0
 11
205.0
 21
148.5
 31
0.0
  0
LINE
  5
92
330
7E
100
AcDbEntity
  8
0
  6
Continuous
 62
     0
370
     0
100
AcDbLine
 10
210.0
 20
222.75
 30
0.0
 11
205.0
 21
222.75
 31
0.0
  0
MTEXT
  5
93
330
7E
100
AcDbEntity
  8
0
  6
Continuous
 62
     0
370
     0
100
AcDbMText
 10
1.170008
 20
262.108692
 30
0.0
 40
3.5
 41
0.0
 71
     1
 72
     1
  1
{\fCalibri|b0|i0|c0|p0;A}
  7
ISO
 73
     1
 44
1.0
  0
MTEXT
  5
94
330
7E
100
AcDbEntity
  8
0
  6
Continuous
 62
     0
370
     0
100
AcDbMText
 10
1.170008
 20
187.858692
 30
0.0
 40
3.5
 41
0.0
 71
     1
 72
     1
  1
{\fCalibri|b0|i0|c0|p0;B}
  7
ISO
 73
     1
 44
1.0
  0
MTEXT
  5
95
330
7E
100
AcDbEntity
  8
0
  6
Continuous
 62
     0
370
     0
100
AcDbMText
 10
1.170008
 20
113.608692
 30
0.0
 40
3.5
 41
0.0
 71
     1
 72
     1
  1
{\fCalibri|b0|i0|c0|p0;C}
  7
ISO
 73
     1
 44
1.0
  0
MTEXT
  5
96
330
7E
100
AcDbEntity
  8
0
  6
Continuous
 62
     0
370
     0
100
AcDbMText
 10
1.170008
 20
39.358692
 30
0.0
 40
3.5
 41
0.0
 71
     1
 72
     1
  1
{\fCalibri|b0|i0|c0|p0;D}
  7
ISO
 73
     1
 44
1.0
  0
MTEXT
  5
97
330
7E
100
AcDbEntity
  8
0
  6
Continuous
 62
     0
370
     0
100
AcDbMText
 10
24.971951
 20
296.122142
 30
0.0
 40
3.5
 41
0.0
 71
     1
 72
     1
  1
{\fCalibri|b0|i0|c0|p0;1}
  7
ISO
 73
     1
 44
1.0
  0
MTEXT
  5
98
330
7E
100
AcDbEntity
  8
0
  6
Continuous
 62
     0
370
     0
100
AcDbMText
 10
77.471951
 20
296.122142
 30
0.0
 40
3.5
 41
0.0
 71
     1
 72
     1
  1
{\fCalibri|b0|i0|c0|p0;2}
  7
ISO
 73
     1
 44
1.0
  0
MTEXT
  5
99
330
7E
100
AcDbEntity
  8
0
  6
Continuous
 62
     0
370
     0
100
AcDbMText
 10
129.971951
 20
296.122142
 30
0.0
 40
3.5
 41
0.0
 71
     1
 72
     1
  1
{\fCalibri|b0|i0|c0|p0;3}
  7
ISO
 73
     1
 44
1.0
  0
MTEXT
  5
9A
330
7E
100
AcDbEntity
  8
0
  6
Continuous
 62
     0
370
     0
100
AcDbMText
 10
182.471951
 20
296.122142
 30
0.0
 40
3.5
 41
0.0
 71
     1
 72
     1
  1
{\fCalibri|b0|i0|c0|p0;4}
  7
ISO
 73
     1
 44
1.0
  0
MTEXT
  5
9B
330
7E
100
AcDbEntity
  8
0
  6
Continuous
 62
     0
370
     0
100
AcDbMText
 10
206.170008
 20
262.108692
 30
0.0
 40
3.5
 41
0.0
 71
     1
 72
     1
  1
{\fCalibri|b0|i0|c0|p0;A}
  7
ISO
 73
     1
 44
1.0
  0
MTEXT
  5
9C
330
7E
100
AcDbEntity
  8
0
  6
Continuous
 62
     0
370
     0
100
AcDbMText
 10
206.170008
 20
187.858692
 30
0.0
 40
3.5
 41
0.0
 71
     1
 72
     1
  1
{\fCalibri|b0|i0|c0|p0;B}
  7
ISO
 73
     1
 44
1.0
  0
MTEXT
  5
9D
330
7E
100
AcDbEntity
  8
0
  6
Continuous
 62
     0
370
     0
100
AcDbMText
 10
206.170008
 20
113.608692
 30
0.0
 40
3.5
 41
0.0
 71
     1
 72
     1
  1
{\fCalibri|b0|i0|c0|p0;C}
  7
ISO
 73
     1
 44
1.0
  0
MTEXT
  5
9E
330
7E
100
AcDbEntity
  8
0
  6
Continuous
 62
     0
370
     0
100
AcDbMText
 10
206.170008
 20
39.358692
 30
0.0
 40
3.5
 41
0.0
 71
     1
 72
     1
  1
{\fCalibri|b0|i0|c0|p0;D}
  7
ISO
 73
     1
 44
1.0
  0
MTEXT
  5
9F
330
7E
100
AcDbEntity
  8
0
  6
Continuous
 62
     0
370
     0
100
AcDbMText
 10
24.971951
 20
4.122142
 30
0.0
 40
3.5
 41
0.0
 71
     1
 72
     1
  1
{\fCalibri|b0|i0|c0|p0;1}
  7
ISO
 73
     1
 44
1.0
  0
MTEXT
  5
A0
330
7E
100
AcDbEntity
  8
0
  6
Continuous
 62
     0
370
     0
100
AcDbMText
 10
77.471951
 20
4.122142
 30
0.0
 40
3.5
 41
0.0
 71
     1
 72
     1
  1
{\fCalibri|b0|i0|c0|p0;2}
  7
ISO
 73
     1
 44
1.0
  0
MTEXT
  5
A1
330
7E
100
AcDbEntity
  8
0
  6
Continuous
 62
     0
370
     0
100
AcDbMText
 10
129.971951
 20
4.122142
 30
0.0
 40
3.5
 41
0.0
 71
     1
 72
     1
  1
{\fCalibri|b0|i0|c0|p0;3}
  7
ISO
 73
     1
 44
1.0
  0
MTEXT
  5
A2
330
7E
100
AcDbEntity
  8
0
  6
Continuous
 62
     0
370
     0
100
AcDbMText
 10
182.471951
 20
4.122142
 30
0.0
 40
3.5
 41
0.0
 71
     1
 72
     1
  1
{\fCalibri|b0|i0|c0|p0;4}
  7
ISO
 73
     1
 44
1.0
  0
INSERT
  5
1AC
330
7E
100
AcDbEntity
  8
0
  6
Continuous
 62
     0
370
     0
100
AcDbBlockReference
  2
TITLE_BLOCK
 10
205.0
 20
5.0
 30
0.0
  0
ENDBLK
  5
1AE
330
7E
100
AcDbEntity
  8
0
100
AcDbBlockEnd
  0
BLOCK
  5
1AA
330
A3
100
AcDbEntity
  8
0
100
AcDbBlockBegin
  2
TITLE_BLOCK
 70
     0
 10
205.0
 20
5.0
 30
0.0
  3
TITLE_BLOCK
  1

  0
CIRCLE
  5
A4
330
A3
100
AcDbEntity
  8
0
  6
Continuous
 62
     0
370
     0
100
AcDbCircle
 10
159.710685
 20
12.706765
 30
0.0
 40
1.764810385392538
  0
LINE
  5
A5
330
A3
100
AcDbEntity
  8
0
  6
Continuous
 62
     0
370
     0
100
AcDbLine
 10
162.3579
 20
12.706765
 30
0.0
 11
157.063469
 21
12.706765
 31
0.0
  0
LINE
  5
A6
330
A3
100
AcDbEntity
  8
0
  6
Continuous
 62
     0
370
     0
100
AcDbLine
 10
159.710685
 20
10.059549
 30
0.0
 11
159.710685
 21
15.35398
 31
0.0
  0
CIRCLE
  5
A7
330
A3
100
AcDbEntity
  8
0
  6
Continuous
 62
     0
370
     0
100
AcDbCircle
 10
159.710685
 20
12.706765
 30
0.0
 40
2.647215578088807
  0
LINE
  5
A8
330
A3
100
AcDbEntity
  8
0
  6
Continuous
 62
     0
370
     0
100
AcDbLine
 10
148.178277
 20
14.471575
 30
0.0
 11
148.178277
 21
10.941954
 31
0.0
  0
LINE
  5
A9
330
A3
100
AcDbEntity
  8
0
  6
Continuous
 62
     0
370
     0
100
AcDbLine
 10
148.178277
 20
10.941954
 30
0.0
 11
153.472708
 21
10.059549
 31
0.0
  0
LINE
  5
AA
330
A3
100
AcDbEntity
  8
0
  6
Continuous
 62
     0
370
     0
100
AcDbLine
 10
153.472708
 20
12.706765
 30
0.0
 11
148.178277
 21
12.706765
 31
0.0
  0
LINE
  5
AB
330
A3
100
AcDbEntity
  8
0
  6
Continuous
 62
     0
370
     0
100
AcDbLine
 10
153.472708
 20
10.059549
 30
0.0
 11
153.472708
 21
15.35398
 31
0.0
  0
LINE
  5
AC
330
A3
100
AcDbEntity
  8
0
  6
Continuous
 62
     0
370
     0
100
AcDbLine
 10
153.472708
 20
15.35398
 30
0.0
 11
148.178277
 21
14.471575
 31
0.0
  0
MTEXT
  5
AD
330
A3
100
AcDbEntity
  8
0
  6
Continuous
 62
     0
370
     0
100
AcDbMText
 10
39.661532
 20
29.735161
 30
0.0
 40
3.0
 41
0.0
 71
     1
 72
     1
  1
{\W0.79;{\fArial Unicode MS|b0|i0;SUPPORTO FISSO D. 30}}
  7
ANSI
 73
     1
 44
1.0
  0
LINE
  5
AE
330
A3
100
AcDbEntity
  8
0
  6
Continuous
 62
     0
370
     0
100
AcDbLine
 10
164.999997
 20
34.0
 30
0.0
 11
33.994019
 21
34.0
 31
0.0
  0
MTEXT
  5
AF
330
A3
100
AcDbEntity
  8
0
  6
Continuous
 62
     0
370
     0
100
AcDbMText
 10
157.571885
 20
42.141803
 30
0.0
 40
7.0
 41
0.0
 71
     3
 72
     1
  1
{\fArial Unicode MS|b0|i0|c0|p0;0}
  7
ANSI
 73
     1
 44
1.0
  0
LINE
  5
B0
330
A3
100
AcDbEntity
  8
0
  6
Continuous
 62
     0
370
     0
100
AcDbLine
 10
33.994019
 20
66.001644
 30
0.0
 11
33.994019
 21
5.0
 31
0.0
  0
MTEXT
  5
B1
330
A3
100
AcDbEntity
  8
0
  6
Continuous
 62
     0
370
     0
100
AcDbMText
 10
36.025206
 20
45.159308
 30
0.0
 40
1.2
 41
0.0
 71
     1
 72
     1
  1
{\W1.44;{\fArial|b0|i0;N. DISEGNO / Drawing NO}}
  7
ISO
 73
     1
 44
1.0
  0
MTEXT
  5
B2
330
A3
100
AcDbEntity
  8
0
  6
Continuous
 62
     0
370
     0
100
AcDbMText
 10
38.903352
 20
42.071252
 30
0.0
 40
6.0
 41
0.0
 71
     1
 72
     1
  1
{\W0.74;{\fArial Unicode MS|b0|i0;P819267}}
  7
ISO
 73
     1
 44
1.0
  0
MTEXT
  5
B3
330
A3
100
AcDbEntity
  8
0
  6
Continuous
 62
     0
370
     0
100
AcDbMText
 10
36.016053
 20
33.07883
 30
0.0
 40
1.2
 41
0.0
 71
     1
 72
     1
  1
{\W1.43;{\fArial|b0|i0;DENOMINAZIONE / Denomination}}
  7
ISO
 73
     1
 44
1.0
  0
MTEXT
  5
B4
330
A3
100
AcDbEntity
  8
0
  6
Continuous
 62
     0
370
     0
100
AcDbMText
 10
147.480519
 20
44.920651
 30
0.0
 40
1.6
 41
0.0
 71
     1
 72
     1
  1
{\W1.48;{\fArial|b0|i0;Rev.}}
  7
ISO
 73
     1
 44
1.0
  0
MTEXT
  5
B5
330
A3
100
AcDbEntity
  8
0
  6
Continuous
 62
     0
370
     0
100
AcDbMText
 10
35.68509
 20
23.708597
 30
0.0
 40
1.2
 41
0.0
 71
     1
 72
     1
  1
{\W1.17;{\fArial|b0|i0;MATERIALE E CARATTERISTICHE MECCANICHE-TERMICHE / Material and Mechanic-thermic Specification}}
  7
ISO
 73
     1
 44
1.0
  0
MTEXT
  5
B6
330
A3
100
AcDbEntity
  8
0
  6
Continuous
 62
     0
370
     0
100
AcDbMText
 10
39.727248
 20
20.468213
 30
0.0
 40
3.0
 41
0.0
 71
     1
 72
     1
  1
{\W0.77;{\fArial Unicode MS|b0|i0;INOX AISI 316}}
  7
ANSI
 73
     1
 44
1.0
  0
LINE
  5
B7
330
A3
100
AcDbEntity
  8
0
  6
Continuous
 62
     0
370
     0
100
AcDbLine
 10
9.994019
 20
25.001644
 30
0.0
 11
9.994019
 21
59.001644
 31
0.0
  0
MTEXT
  5
B8
330
A3
100
AcDbEntity
  8
0
  6
Continuous
 62
     0
370
     0
100
AcDbMText
 10
165.969442
 20
31.748517
 30
0.0
 40
1.2
 41
0.0
 71
     1
 72
     1
  1
{\fArial|b0|i0|c0|p0;TRATTAMENTO TERMICO / Thermical treatment}
  7
ISO
 73
     1
 44
1.0
  0
MTEXT
  5
B9
330
A3
100
AcDbEntity
  8
0
  6
Continuous
 62
     0
370
     0
100
AcDbMText
 10
166.581394
 20
28.199931
 30
0.0
 40
2.0
 41
0.0
 71
     1
 72
     1
  1

  7
ANSI
 73
     1
 44
1.0
  0
MTEXT
  5
BA
330
A3
100
AcDbEntity
  8
0
  6
Continuous
 62
     0
370
     0
100
AcDbMText
 10
179.88854
 20
23.700927
 30
0.0
 40
1.2
 41
0.0
 71
     1
 72
     1
  1
{\W1.43;{\fArial|b0|i0;MASSA-Kg / Mass-Kg}}
  7
ISO
 73
     1
 44
1.0
  0
MTEXT
  5
BB
330
A3
100
AcDbEntity
  8
0
  6
Continuous
 62
     0
370
     0
100
AcDbMText
 10
203.659
 20
20.41755
 30
0.0
 40
2.0
 41
0.0
 71
     3
 72
     1
  1
{\W0.72;{\fArial Unicode MS|b0|i0;0 Kg}}
  7
ANSI
 73
     1
 44
1.0
  0
MTEXT
  5
BC
330
A3
100
AcDbEntity
  8
0
  6
Continuous
 62
     0
370
     0
100
AcDbMText
 10
56.650613
 20
15.245705
 30
0.0
 40
1.2
 41
0.0
 71
     1
 72
     1
  1
{\W1.18;{\fArial|b0|i0;SCALA / Scale}}
  7
ISO
 73
     1
 44
1.0
  0
MTEXT
  5
BD
330
A3
100
AcDbEntity
  8
0
  6
Continuous
 62
     0
370
     0
100
AcDbMText
 10
62.543785
 20
11.84683
 30
0.0
 40
2.0
 41
0.0
 71
     1
 72
     1
  1
{\W1.04;{\fArial Unicode MS|b0|i0;1:1}}
  7
ANSI
 73
     1
 44
1.0
  0
MTEXT
  5
BE
330
A3
100
AcDbEntity
  8
0
  6
Continuous
 62
     0
370
     0
100
AcDbMText
 10
79.193054
 20
15.093542
 30
0.0
 40
1.2
 41
0.0
 71
     1
 72
     1
  1
{\W1.18;{\fArial|b0|i0;DISEGNATO / Dwn}}
  7
ISO
 73
     1
 44
1.0
  0
MTEXT
  5
BF
330
A3
100
AcDbEntity
  8
0
  6
Continuous
 62
     0
370
     0
100
AcDbMText
 10
79.153958
 20
11.927873
 30
0.0
 40
2.0
 41
0.0
 71
     1
 72
     1
  1
{\W0.85;{\fArial Unicode MS|b0|i0;MILANI F.}}
  7
ANSI
 73
     1
 44
1.0
  0
MTEXT
  5
C0
330
A3
100
AcDbEntity
  8
0
  6
Continuous
 62
     0
370
     0
100
AcDbMText
 10
101.028418
 20
11.902593
 30
0.0
 40
2.0
 41
0.0
 71
     1
 72
     1
  1
{\W0.66;{\fArial Unicode MS|b0|i0;03/08/2020}}
  7
ANSI
 73
     1
 44
1.0
  0
MTEXT
  5
C1
330
A3
100
AcDbEntity
  8
0
  6
Continuous
 62
     0
370
     0
100
AcDbMText
 10
101.507606
 20
14.980718
 30
0.0
 40
1.2
 41
0.0
 71
     1
 72
     1
  1
{\W1.19;{\fArial|b0|i0;DATA / Date}}
  7
ISO
 73
     1
 44
1.0
  0
MTEXT
  5
C2
330
A3
100
AcDbEntity
  8
0
  6
Continuous
 62
     0
370
     0
100
AcDbMText
 10
127.797895
 20
12.096408
 30
0.0
 40
2.0
 41
0.0
 71
     1
 72
     1
  1
{\W0.91;{\fArial Unicode MS|b0|i0;A4V}}
  7
ANSI
 73
     1
 44
1.0
  0
MTEXT
  5
C3
330
A3
100
AcDbEntity
  8
0
  6
Continuous
 62
     0
370
     0
100
AcDbMText
 10
124.007069
 20
15.056888
 30
0.0
 40
1.2
 41
0.0
 71
     1
 72
     1
  1
{\W1.17;{\fArial|b0|i0;FORMATO / Format}}
  7
ISO
 73
     1
 44
1.0
  0
MTEXT
  5
C4
330
A3
100
AcDbEntity
  8
0
  6
Continuous
 62
     0
370
     0
100
AcDbMText
 10
36.095467
 20
7.5421
 30
0.0
 40
1.5
 41
0.0
 71
     1
 72
     1
  1
{\W1.29;{\fArial|b0|i0;Disegno di proprietà della Ditta  ZUCCHETTI rubinetteria S.p.A. - A termini di legge è vietata la riproduzione e la copia}}
  7
ANSI
 73
     2
 44
0.899982
  0
MTEXT
  5
C5
102
{ACAD_XDICTIONARY
360
2B9
102
}
330
A3
100
AcDbEntity
  8
0
  6
Continuous
 62
     0
370
     0
100
AcDbMText
 10
167.480869
 20
54.802298
 30
0.0
 40
3.0
 41
0.0
 71
     1
 72
     1
  1
{\FArial Unicode MS;\W0.88000x;UFFICIO TECNICO}\P{\W0.88000x;}\P
  7
ANSI
 73
     2
 44
0.899982
  0
MTEXT
  5
C6
102
{ACAD_XDICTIONARY
360
2BB
102
}
330
A3
100
AcDbEntity
  8
0
  6
Continuous
 62
     0
370
     0
100
AcDbMText
 10
12.157582
 20
64.978016
 30
0.0
 40
1.9
 41
0.0
 71
     1
 72
     1
  1
{\fArial|b0|i0|c0|p0;\W0.96000x;TOLLERANZE  }\P{\fArial|b0|i0|c0|p0;\W0.96000x;  GENERALI}\P
  7
ISO
 73
     2
 44
0.899982
  0
LINE
  5
C7
330
A3
100
AcDbEntity
  8
0
  6
Continuous
 62
     0
370
     0
100
AcDbLine
 10
164.999997
 20
17.0
 30
0.0
 11
204.999997
 21
17.0
 31
0.0
  0
LINE
  5
C8
330
A3
100
AcDbEntity
  8
0
  6
Continuous
 62
     0
370
     0
100
AcDbLine
 10
164.999997
 20
33.0
 30
0.0
 11
204.999997
 21
33.0
 31
0.0
  0
LINE
  5
C9
330
A3
100
AcDbEntity
  8
0
  6
Continuous
 62
     0
370
     0
100
AcDbLine
 10
164.999997
 20
41.0
 30
0.0
 11
204.999997
 21
41.0
 31
0.0
  0
MTEXT
  5
CA
330
A3
100
AcDbEntity
  8
0
  6
Continuous
 62
     0
370
     0
100
AcDbMText
 10
166.158117
 20
36.306269
 30
0.0
 40
2.0
 41
0.0
 71
     1
 72
     1
  1

  7
ANSI
 73
     1
 44
1.0
  0
MTEXT
  5
CB
330
A3
100
AcDbEntity
  8
0
  6
Continuous
 62
     0
370
     0
100
AcDbMText
 10
166.414336
 20
39.714233
 30
0.0
 40
1.2
 41
0.0
 71
     1
 72
     1
  1
{\W1.48;{\fArial|b0|i0;FINITURA / Finish}}
  7
ISO
 73
     1
 44
1.0
  0
MTEXT
  5
CC
330
A3
100
AcDbEntity
  8
0
  6
Continuous
 62
     0
370
     0
100
AcDbMText
 10
176.97308
 20
15.797342
 30
0.0
 40
1.2
 41
0.0
 71
     1
 72
     1
  1
{\W1.43;{\fArial|b0|i0;RUGOSITA' / Roughness}}
  7
ISO
 73
     1
 44
1.0
  0
TEXT
  5
CD
330
A3
100
AcDbEntity
  8
0
  6
Continuous
 62
     0
370
     0
100
AcDbText
 10
195.89371
 20
11.503504
 30
0.0
 40
1.113748
  1
0.4
  7
Default
100
AcDbText
  0
TEXT
  5
CE
330
A3
100
AcDbEntity
  8
0
  6
Continuous
 62
     0
370
     0
100
AcDbText
 10
192.513788
 20
11.503504
 30
0.0
 40
1.113748
  1
0.8
  7
Default
100
AcDbText
  0
TEXT
  5
CF
330
A3
100
AcDbEntity
  8
0
  6
Continuous
 62
     0
370
     0
100
AcDbText
 10
189.118397
 20
11.503504
 30
0.0
 40
1.113748
  1
1.6
 41
1.1
  7
Default
100
AcDbText
  0
TEXT
  5
D0
330
A3
100
AcDbEntity
  8
0
  6
Continuous
 62
     0
370
     0
100
AcDbText
 10
187.534977
 20
9.680366
 30
0.0
 40
3.341243
  1
(
  7
Default
100
AcDbText
  0
LINE
  5
D1
330
A3
100
AcDbEntity
  8
0
  6
Continuous
 62
     0
370
     0
100
AcDbLine
 10
192.40779
 20
11.290476
 30
0.0
 11
194.551199
 21
11.290476
 31
0.0
  0
LINE
  5
D2
330
A3
100
AcDbEntity
  8
0
  6
Continuous
 62
     0
370
     0
100
AcDbLine
 10
195.787819
 20
11.290476
 30
0.0
 11
197.931228
 21
11.290476
 31
0.0
  0
LINE
  5
D3
330
A3
100
AcDbEntity
  8
0
  6
Continuous
 62
     0
370
     0
100
AcDbLine
 10
189.012536
 20
11.290476
 30
0.0
 11
191.155945
 21
11.290476
 31
0.0
  0
LINE
  5
D4
330
A3
100
AcDbEntity
  8
0
  6
Continuous
 62
     0
370
     0
100
AcDbLine
 10
196.859523
 20
9.43423
 30
0.0
 11
195.787819
 21
11.290476
 31
0.0
  0
LINE
  5
D5
330
A3
100
AcDbEntity
  8
0
  6
Continuous
 62
     0
370
     0
100
AcDbLine
 10
193.479495
 20
9.43423
 30
0.0
 11
192.40779
 21
11.290476
 31
0.0
  0
LINE
  5
D6
330
A3
100
AcDbEntity
  8
0
  6
Continuous
 62
     0
370
     0
100
AcDbLine
 10
190.08424
 20
9.43423
 30
0.0
 11
189.012536
 21
11.290476
 31
0.0
  0
CIRCLE
  5
D7
330
A3
100
AcDbEntity
  8
0
  6
Continuous
 62
     0
370
     0
100
AcDbCircle
 10
185.366934
 20
11.290476
 30
0.0
 40
0.6559200647572615
  0
LINE
  5
D8
330
A3
100
AcDbEntity
  8
0
  6
Continuous
 62
     0
370
     0
100
AcDbLine
 10
185.366934
 20
9.43423
 30
0.0
 11
184.29523
 21
11.290476
 31
0.0
  0
TEXT
  5
D9
330
A3
100
AcDbEntity
  8
0
  6
Continuous
 62
     0
370
     0
100
AcDbText
 10
201.274804
 20
9.680366
 30
0.0
 40
3.341243
  1
(
  7
Default
 71
     2
100
AcDbText
  0
LINE
  5
DA
330
A3
100
AcDbEntity
  8
0
  6
Continuous
 62
     0
370
     0
100
AcDbLine
 10
144.997008
 20
16.0
 30
0.0
 11
144.997008
 21
9.0
 31
0.0
  0
LINE
  5
DB
330
A3
100
AcDbEntity
  8
0
  6
Continuous
 62
     0
370
     0
100
AcDbLine
 10
164.999997
 20
16.0
 30
0.0
 11
33.994019
 21
16.0
 31
0.0
  0
LINE
  5
DC
330
A3
100
AcDbEntity
  8
0
  6
Continuous
 62
     0
370
     0
100
AcDbLine
 10
33.994019
 20
9.0
 30
0.0
 11
204.999997
 21
9.0
 31
0.0
  0
MTEXT
  5
DD
330
A3
100
AcDbEntity
  8
0
  6
Continuous
 62
     0
370
     0
100
AcDbMText
 10
167.403407
 20
49.221414
 30
0.0
 40
2.0
 41
0.0
 71
     1
 72
     1
  1
{\W0.76;{\fArial Unicode MS|b0|i0;Technical Dept.}}
  7
ANSI
 73
     1
 44
1.0
  0
MTEXT
  5
DE
330
A3
100
AcDbEntity
  8
0
  6
Continuous
 62
     0
370
     0
100
AcDbMText
 10
35.201082
 20
14.933595
 30
0.0
 40
1.2
 41
0.0
 71
     1
 72
     1
  1
{\W1.17;{\fArial|b0|i0;PROGETTO / Project}}
  7
ISO
 73
     1
 44
1.0
  0
MTEXT
  5
DF
330
A3
100
AcDbEntity
  8
0
  6
Continuous
 62
     0
370
     0
100
AcDbMText
 10
35.254014
 20
12.037387
 30
0.0
 40
2.0
 41
0.0
 71
     1
 72
     1
  1
{\W0.78;{\fArial Unicode MS|b0|i0;2010}}
  7
ANSI
 73
     1
 44
1.0
  0
MTEXT
  5
E0
330
A3
100
AcDbEntity
  8
1023
  6
Continuous
 62
     0
370
     0
100
AcDbMText
 10
68.914376
 20
19.776849
 30
0.0
 40
10.0
 41
0.0
 71
     1
 72
     1
  1
{\W0.96;{\fArial|b0|i0;PROVVISORIO}}
  7
ISO
 11
0.8660254037850881
 21
0.4999999999988751
 31
0.0
 73
     1
 44
1.0
  0
LINE
  5
E1
330
A3
100
AcDbEntity
  8
0
  6
Continuous
 62
     0
370
     0
100
AcDbLine
 10
204.999997
 20
60.001644
 30
0.0
 11
33.994019
 21
60.001644
 31
0.0
  0
MTEXT
  5
E2
330
A3
100
AcDbEntity
  8
0
  6
Continuous
 62
     0
370
     0
100
AcDbMText
 10
65.541533
 20
64.072106
 30
0.0
 40
2.140007
 41
0.0
 71
     1
 72
     1
  1
{\W0.95;{\fArial|b0|i0;evidenziano le quote soggette a controllo qualità}}
  7
ROMANS
 73
     1
 44
1.0
  0
MTEXT
  5
E3
330
A3
100
AcDbEntity
  8
0
  6
Continuous
 62
     0
370
     0
100
AcDbMText
 10
60.344221
 20
64.072106
 30
0.0
 40
2.140007
 41
0.0
 71
     1
 72
     1
  1
{\fArial|b0|i0|c0|p0;n°}
  7
ROMANS
 73
     1
 44
1.0
  0
CIRCLE
  5
E4
330
A3
100
AcDbEntity
  8
0
  6
Continuous
 62
     0
370
     0
100
AcDbCircle
 10
61.386739
 20
62.915346
 30
0.0
 40
2.140007104441107
  0
MTEXT
  5
E5
330
A3
100
AcDbEntity
  8
0
  6
Continuous
 62
     0
370
     0
100
AcDbMText
 10
36.113168
 20
64.072106
 30
0.0
 40
2.140007
 41
0.0
 71
     1
 72
     1
  1
{\fArial|b0|i0|c0|p0;I simboli}
  7
ROMANS
 73
     1
 44
1.0
  0
CIRCLE
  5
E6
330
A3
100
AcDbEntity
  8
0
  6
Continuous
 62
     0
370
     0
100
AcDbCircle
 10
52.490215
 20
62.915346
 30
0.0
 40
2.140007104441107
  0
LINE
  5
E7
330
A3
100
AcDbEntity
  8
0
  6
Continuous
 62
     0
370
     0
100
AcDbLine
 10
51.585809
 20
60.975841
 30
0.0
 11
53.394621
 21
64.854851
 31
0.0
  0
MTEXT
  5
E8
330
A3
100
AcDbEntity
  8
0
  6
Continuous
 62
     0
370
     0
100
AcDbMText
 10
56.187448
 20
64.072106
 30
0.0
 40
2.140007
 41
0.0
 71
     1
 72
     1
  1
{\fArial|b0|i0|c0|p0;o}
  7
ROMANS
 73
     1
 44
1.0
  0
LINE
  5
E9
330
A3
100
AcDbEntity
  8
0
  6
Continuous
 62
     0
370
     0
100
AcDbLine
 10
50.668219
 20
61.792862
 30
0.0
 11
53.101403
 21
64.226046
 31
0.0
  0
LINE
  5
EA
330
A3
100
AcDbEntity
  8
0
  6
Continuous
 62
     0
370
     0
100
AcDbLine
 10
50.632974
 20
61.852193
 30
0.0
 11
53.184038
 21
64.403257
 31
0.0
  0
LINE
  5
EB
330
A3
100
AcDbEntity
  8
0
  6
Continuous
 62
     0
370
     0
100
AcDbLine
 10
50.599374
 20
61.913169
 30
0.0
 11
53.266672
 21
64.580467
 31
0.0
  0
LINE
  5
EC
330
A3
100
AcDbEntity
  8
0
  6
Continuous
 62
     0
370
     0
100
AcDbLine
 10
50.567466
 20
61.975837
 30
0.0
 11
53.349307
 21
64.757678
 31
0.0
  0
LINE
  5
ED
330
A3
100
AcDbEntity
  8
0
  6
Continuous
 62
     0
370
     0
100
AcDbLine
 10
50.537307
 20
62.040253
 30
0.0
 11
53.365305
 21
64.868252
 31
0.0
  0
LINE
  5
EE
330
A3
100
AcDbEntity
  8
0
  6
Continuous
 62
     0
370
     0
100
AcDbLine
 10
50.508959
 20
62.106481
 30
0.0
 11
53.299077
 21
64.8966
 31
0.0
  0
LINE
  5
EF
330
A3
100
AcDbEntity
  8
0
  6
Continuous
 62
     0
370
     0
100
AcDbLine
 10
50.482498
 20
62.174596
 30
0.0
 11
53.230962
 21
64.92306
 31
0.0
  0
LINE
  5
F0
330
A3
100
AcDbEntity
  8
0
  6
Continuous
 62
     0
370
     0
100
AcDbLine
 10
50.458011
 20
62.244685
 30
0.0
 11
53.160873
 21
64.947547
 31
0.0
  0
LINE
  5
F1
330
A3
100
AcDbEntity
  8
0
  6
Continuous
 62
     0
370
     0
100
AcDbLine
 10
50.4356
 20
62.31685
 30
0.0
 11
53.088708
 21
64.969958
 31
0.0
  0
LINE
  5
F2
330
A3
100
AcDbEntity
  8
0
  6
Continuous
 62
     0
370
     0
100
AcDbLine
 10
50.415385
 20
62.39121
 30
0.0
 11
53.014348
 21
64.990174
 31
0.0
  0
LINE
  5
F3
330
A3
100
AcDbEntity
  8
0
  6
Continuous
 62
     0
370
     0
100
AcDbLine
 10
50.397505
 20
62.467906
 30
0.0
 11
52.937652
 21
65.008054
 31
0.0
  0
LINE
  5
F4
330
A3
100
AcDbEntity
  8
0
  6
Continuous
 62
     0
370
     0
100
AcDbLine
 10
50.382127
 20
62.547104
 30
0.0
 11
52.858454
 21
65.023432
 31
0.0
  0
LINE
  5
F5
330
A3
100
AcDbEntity
  8
0
  6
Continuous
 62
     0
370
     0
100
AcDbLine
 10
50.36945
 20
62.629003
 30
0.0
 11
52.776555
 21
65.036109
 31
0.0
  0
LINE
  5
F6
330
A3
100
AcDbEntity
  8
0
  6
Continuous
 62
     0
370
     0
100
AcDbLine
 10
50.359714
 20
62.713843
 30
0.0
 11
52.691715
 21
65.045844
 31
0.0
  0
LINE
  5
F7
330
A3
100
AcDbEntity
  8
0
  6
Continuous
 62
     0
370
     0
100
AcDbLine
 10
50.353214
 20
62.801919
 30
0.0
 11
52.603639
 21
65.052344
 31
0.0
  0
LINE
  5
F8
330
A3
100
AcDbEntity
  8
0
  6
Continuous
 62
     0
370
     0
100
AcDbLine
 10
50.350317
 20
62.893597
 30
0.0
 11
52.511961
 21
65.055242
 31
0.0
  0
LINE
  5
F9
330
A3
100
AcDbEntity
  8
0
  6
Continuous
 62
     0
370
     0
100
AcDbLine
 10
50.351486
 20
62.989342
 30
0.0
 11
52.416216
 21
65.054072
 31
0.0
  0
LINE
  5
FA
330
A3
100
AcDbEntity
  8
0
  6
Continuous
 62
     0
370
     0
100
AcDbLine
 10
50.357325
 20
63.089758
 30
0.0
 11
52.3158
 21
65.048233
 31
0.0
  0
LINE
  5
FB
330
A3
100
AcDbEntity
  8
0
  6
Continuous
 62
     0
370
     0
100
AcDbLine
 10
50.368643
 20
63.195652
 30
0.0
 11
52.209907
 21
65.036915
 31
0.0
  0
LINE
  5
FC
330
A3
100
AcDbEntity
  8
0
  6
Continuous
 62
     0
370
     0
100
AcDbLine
 10
50.386565
 20
63.308149
 30
0.0
 11
52.097409
 21
65.018993
 31
0.0
  0
LINE
  5
FD
330
A3
100
AcDbEntity
  8
0
  6
Continuous
 62
     0
370
     0
100
AcDbLine
 10
50.412741
 20
63.428901
 30
0.0
 11
51.976657
 21
64.992817
 31
0.0
  0
LINE
  5
FE
330
A3
100
AcDbEntity
  8
0
  6
Continuous
 62
     0
370
     0
100
AcDbLine
 10
50.449774
 20
63.56051
 30
0.0
 11
51.845049
 21
64.955784
 31
0.0
  0
LINE
  5
FF
330
A3
100
AcDbEntity
  8
0
  6
Continuous
 62
     0
370
     0
100
AcDbLine
 10
50.502239
 20
63.707551
 30
0.0
 11
51.698007
 21
64.903319
 31
0.0
  0
LINE
  5
100
330
A3
100
AcDbEntity
  8
0
  6
Continuous
 62
     0
370
     0
100
AcDbLine
 10
50.579802
 20
63.87969
 30
0.0
 11
51.525868
 21
64.825756
 31
0.0
  0
LINE
  5
101
330
A3
100
AcDbEntity
  8
0
  6
Continuous
 62
     0
370
     0
100
AcDbLine
 10
50.713002
 20
64.107465
 30
0.0
 11
51.298093
 21
64.692556
 31
0.0
  0
LINE
  5
102
330
A3
100
AcDbEntity
  8
0
  6
Continuous
 62
     0
370
     0
100
AcDbLine
 10
50.705069
 20
61.735137
 30
0.0
 11
53.018769
 21
64.048836
 31
0.0
  0
LINE
  5
103
330
A3
100
AcDbEntity
  8
0
  6
Continuous
 62
     0
370
     0
100
AcDbLine
 10
50.743491
 20
61.678982
 30
0.0
 11
52.936134
 21
63.871625
 31
0.0
  0
LINE
  5
104
330
A3
100
AcDbEntity
  8
0
  6
Continuous
 62
     0
370
     0
100
AcDbLine
 10
50.783456
 20
61.624372
 30
0.0
 11
52.853499
 21
63.694415
 31
0.0
  0
LINE
  5
105
330
A3
100
AcDbEntity
  8
0
  6
Continuous
 62
     0
370
     0
100
AcDbLine
 10
50.824943
 20
61.571282
 30
0.0
 11
52.770865
 21
63.517205
 31
0.0
  0
LINE
  5
106
330
A3
100
AcDbEntity
  8
0
  6
Continuous
 62
     0
370
     0
100
AcDbLine
 10
50.867932
 20
61.519696
 30
0.0
 11
52.68823
 21
63.339994
 31
0.0
  0
LINE
  5
107
330
A3
100
AcDbEntity
  8
0
  6
Continuous
 62
     0
370
     0
100
AcDbLine
 10
50.912413
 20
61.469601
 30
0.0
 11
52.605596
 21
63.162784
 31
0.0
  0
LINE
  5
108
330
A3
100
AcDbEntity
  8
0
  6
Continuous
 62
     0
370
     0
100
AcDbLine
 10
50.958376
 20
61.420988
 30
0.0
 11
52.522961
 21
62.985573
 31
0.0
  0
LINE
  5
109
330
A3
100
AcDbEntity
  8
0
  6
Continuous
 62
     0
370
     0
100
AcDbLine
 10
51.005817
 20
61.373853
 30
0.0
 11
52.440327
 21
62.808363
 31
0.0
  0
LINE
  5
10A
330
A3
100
AcDbEntity
  8
0
  6
Continuous
 62
     0
370
     0
100
AcDbLine
 10
51.054737
 20
61.328197
 30
0.0
 11
52.357692
 21
62.631152
 31
0.0
  0
LINE
  5
10B
330
A3
100
AcDbEntity
  8
0
  6
Continuous
 62
     0
370
     0
100
AcDbLine
 10
51.105141
 20
61.284025
 30
0.0
 11
52.275057
 21
62.453942
 31
0.0
  0
LINE
  5
10C
330
A3
100
AcDbEntity
  8
0
  6
Continuous
 62
     0
370
     0
100
AcDbLine
 10
51.157037
 20
61.241346
 30
0.0
 11
52.192423
 21
62.276732
 31
0.0
  0
LINE
  5
10D
330
A3
100
AcDbEntity
  8
0
  6
Continuous
 62
     0
370
     0
100
AcDbLine
 10
51.210441
 20
61.200174
 30
0.0
 11
52.109788
 21
62.099521
 31
0.0
  0
LINE
  5
10E
330
A3
100
AcDbEntity
  8
0
  6
Continuous
 62
     0
370
     0
100
AcDbLine
 10
51.265369
 20
61.160526
 30
0.0
 11
52.027154
 21
61.922311
 31
0.0
  0
LINE
  5
10F
330
A3
100
AcDbEntity
  8
0
  6
Continuous
 62
     0
370
     0
100
AcDbLine
 10
51.321847
 20
61.122428
 30
0.0
 11
51.944519
 21
61.7451
 31
0.0
  0
LINE
  5
110
330
A3
100
AcDbEntity
  8
0
  6
Continuous
 62
     0
370
     0
100
AcDbLine
 10
51.379902
 20
61.085908
 30
0.0
 11
51.861885
 21
61.56789
 31
0.0
  0
LINE
  5
111
330
A3
100
AcDbEntity
  8
0
  6
Continuous
 62
     0
370
     0
100
AcDbLine
 10
51.439571
 20
61.051
 30
0.0
 11
51.77925
 21
61.390679
 31
0.0
  0
LINE
  5
112
330
A3
100
AcDbEntity
  8
0
  6
Continuous
 62
     0
370
     0
100
AcDbLine
 10
51.500894
 20
61.017747
 30
0.0
 11
51.696615
 21
61.213469
 31
0.0
  0
LINE
  5
113
330
A3
100
AcDbEntity
  8
0
  6
Continuous
 62
     0
370
     0
100
AcDbLine
 10
51.56392
 20
60.986197
 30
0.0
 11
51.613981
 21
61.036259
 31
0.0
  0
LINE
  5
114
330
A3
100
AcDbEntity
  8
0
  6
Continuous
 62
     0
370
     0
100
AcDbLine
 10
144.999997
 20
46.0
 30
0.0
 11
144.999997
 21
34.0
 31
0.0
  0
LINE
  5
115
330
A3
100
AcDbEntity
  8
0
  6
Continuous
 62
     0
370
     0
100
AcDbLine
 10
17.994019
 20
25.001644
 30
0.0
 11
17.994019
 21
59.001644
 31
0.0
  0
LINE
  5
116
330
A3
100
AcDbEntity
  8
0
  6
Continuous
 62
     0
370
     0
100
AcDbLine
 10
25.994019
 20
25.001644
 30
0.0
 11
25.994019
 21
59.001644
 31
0.0
  0
LINE
  5
117
330
A3
100
AcDbEntity
  8
0
  6
Continuous
 62
     0
370
     0
100
AcDbLine
 10
6.19552
 20
37.627724
 30
0.0
 11
8.338928
 21
37.627724
 31
0.0
  0
LINE
  5
118
330
A3
100
AcDbEntity
  8
0
  6
Continuous
 62
     0
370
     0
100
AcDbLine
 10
7.267224
 20
35.771477
 30
0.0
 11
6.19552
 21
37.627724
 31
0.0
  0
CIRCLE
  5
119
330
A3
100
AcDbEntity
  8
0
  6
Continuous
 62
     0
370
     0
100
AcDbCircle
 10
6.928555
 20
52.384657
 30
0.0
 40
0.6559200647572615
  0
LINE
  5
11A
330
A3
100
AcDbEntity
  8
0
  6
Continuous
 62
     0
370
     0
100
AcDbLine
 10
6.928555
 20
50.528411
 30
0.0
 11
5.856851
 21
52.384657
 31
0.0
  0
MTEXT
  5
11B
330
A3
100
AcDbEntity
  8
0
  6
Continuous
 62
     0
370
     0
100
AcDbMText
 10
10.220767
 20
57.216848
 30
0.0
 40
1.5
 41
0.0
 71
     1
 72
     1
  1
{\W1.13;{\fArial|b0|i0;da(>/=)}}
  7
ISO
 73
     1
 44
1.0
  0
MTEXT
  5
11C
330
A3
100
AcDbEntity
  8
0
  6
Continuous
 62
     0
370
     0
100
AcDbMText
 10
20.191529
 20
57.249146
 30
0.0
 40
1.5
 41
0.0
 71
     1
 72
     1
  1
{\W1.15;{\fArial|b0|i0;a(<)}}
  7
ISO
 73
     1
 44
1.0
  0
MTEXT
  5
11D
330
A3
100
AcDbEntity
  8
0
  6
Continuous
 62
     0
370
     0
100
AcDbMText
 10
27.753884
 20
57.113706
 30
0.0
 40
1.5
 41
0.0
 71
     1
 72
     1
  1
{\W1.64;{\fArial|b0|i0;toll}}
  7
ISO
 73
     1
 44
1.0
  0
LINE
  5
11E
330
A3
100
AcDbEntity
  8
0
  6
Continuous
 62
     0
370
     0
100
AcDbLine
 10
122.797008
 20
16.0
 30
0.0
 11
122.797008
 21
9.0
 31
0.0
  0
LINE
  5
11F
330
A3
100
AcDbEntity
  8
0
  6
Continuous
 62
     0
370
     0
100
AcDbLine
 10
100.597008
 20
16.0
 30
0.0
 11
100.597008
 21
9.0
 31
0.0
  0
LINE
  5
120
330
A3
100
AcDbEntity
  8
0
  6
Continuous
 62
     0
370
     0
100
AcDbLine
 10
78.397008
 20
16.0
 30
0.0
 11
78.397008
 21
9.0
 31
0.0
  0
LINE
  5
121
330
A3
100
AcDbEntity
  8
0
  6
Continuous
 62
     0
370
     0
100
AcDbLine
 10
56.197008
 20
16.0
 30
0.0
 11
56.197008
 21
9.0
 31
0.0
  0
LINE
  5
122
330
A3
100
AcDbEntity
  8
0
  6
Continuous
 62
     0
370
     0
100
AcDbLine
 10
164.999997
 20
46.0
 30
0.0
 11
33.994019
 21
46.0
 31
0.0
  0
LINE
  5
123
330
A3
100
AcDbEntity
  8
0
  6
Continuous
 62
     0
370
     0
100
AcDbLine
 10
4.994019
 20
59.001644
 30
0.0
 11
33.994019
 21
59.001644
 31
0.0
  0
MTEXT
  5
124
102
{ACAD_XDICTIONARY
360
2BD
102
}
330
A3
100
AcDbEntity
  8
0
  6
Continuous
 62
     0
370
     0
100
AcDbMText
 10
12.494121
 20
52.396523
 30
0.0
 40
1.6
 41
0.0
 71
     1
 72
     1
  1
{\fArial|b0|i0|c0|p0;\W1.14000x;  0       30     +/-0.3}\P{\W1.14000x;}\P{\fArial|b0|i0|c0|p0;\W1.14000x; 30     100    +/-0.5}\P{\W1.14000x;}\P{\fArial|b0|i0|c0|p0;\W1.14000x;100      --      +/-1.5}\P
  7
ISO
 73
     2
 44
0.929981
  0
MTEXT
  5
125
102
{ACAD_XDICTIONARY
360
2BF
102
}
330
A3
100
AcDbEntity
  8
0
  6
Continuous
 62
     0
370
     0
100
AcDbMText
 10
12.532784
 20
37.368662
 30
0.0
 40
1.6
 41
0.0
 71
     1
 72
     1
  1
{\fArial|b0|i0|c0|p0;\W1.14000x;  0       30     +/-0.1}\P{\W1.14000x;}\P{\fArial|b0|i0|c0|p0;\W1.14000x; 30     100    +/-0.2}\P{\W1.14000x;}\P{\fArial|b0|i0|c0|p0;\W1.14000x;100      --      +/-0.3}\P
  7
ISO
 73
     2
 44
0.929981
  0
LINE
  5
126
330
A3
100
AcDbEntity
  8
0
  6
Continuous
 62
     0
370
     0
100
AcDbLine
 10
204.999997
 20
66.001644
 30
0.0
 11
4.994019
 21
66.001644
 31
0.0
  0
MTEXT
  5
127
102
{ACAD_XDICTIONARY
360
2C1
102
}
330
A3
100
AcDbEntity
  8
0
  6
Continuous
 62
     0
370
     0
100
AcDbMText
 10
5.932789
 20
40.426643
 30
0.0
 40
1.2
 41
0.0
 71
     1
 72
     1
  1
{\fArial|b0|i0|c0|p0;\W1.18000x;GREZZO}\P{\fArial|b0|i0|c0|p0;\W1.18000x;ROUGH}\P
  7
ISO
 11
3.896499959564406E-12
 21
1.0
 31
0.0
 73
     2
 44
0.899982
  0
MTEXT
  5
128
102
{ACAD_XDICTIONARY
360
2C3
102
}
330
A3
100
AcDbEntity
  8
0
  6
Continuous
 62
     0
370
     0
100
AcDbMText
 10
5.847303
 20
25.265376
 30
0.0
 40
1.2
 41
0.0
 71
     1
 72
     1
  1
{\fArial|b0|i0|c0|p0;\W1.13000x;LAVORATO}\P{\fArial|b0|i0|c0|p0;\W1.13000x;MACHINED}\P
  7
ISO
 11
3.896499959564406E-12
 21
1.0
 31
0.0
 73
     2
 44
0.899982
  0
LINE
  5
129
330
A3
100
AcDbEntity
  8
0
  6
Continuous
 62
     0
370
     0
100
AcDbLine
 10
33.994019
 20
55.001644
 30
0.0
 11
4.994019
 21
55.001644
 31
0.0
  0
LINE
  5
12A
330
A3
100
AcDbEntity
  8
0
  6
Continuous
 62
     0
370
     0
100
AcDbLine
 10
33.994019
 20
50.001644
 30
0.0
 11
9.994019
 21
50.001644
 31
0.0
  0
LINE
  5
12B
330
A3
100
AcDbEntity
  8
0
  6
Continuous
 62
     0
370
     0
100
AcDbLine
 10
33.994019
 20
45.001644
 30
0.0
 11
9.994019
 21
45.001644
 31
0.0
  0
LINE
  5
12C
330
A3
100
AcDbEntity
  8
0
  6
Continuous
 62
     0
370
     0
100
AcDbLine
 10
33.994019
 20
40.001644
 30
0.0
 11
4.994019
 21
40.001644
 31
0.0
  0
LINE
  5
12D
330
A3
100
AcDbEntity
  8
0
  6
Continuous
 62
     0
370
     0
100
AcDbLine
 10
33.994019
 20
35.001644
 30
0.0
 11
9.994019
 21
35.001644
 31
0.0
  0
LINE
  5
12E
330
A3
100
AcDbEntity
  8
0
  6
Continuous
 62
     0
370
     0
100
AcDbLine
 10
33.994019
 20
30.001644
 30
0.0
 11
9.994019
 21
30.001644
 31
0.0
  0
LINE
  5
12F
330
A3
100
AcDbEntity
  8
0
  6
Continuous
 62
     0
370
     0
100
AcDbLine
 10
33.994019
 20
25.001644
 30
0.0
 11
4.994019
 21
25.001644
 31
0.0
  0
LINE
  5
130
330
A3
100
AcDbEntity
  8
0
  6
Continuous
 62
     0
370
     0
100
AcDbLine
 10
33.994019
 20
20.001644
 30
0.0
 11
4.994019
 21
20.001644
 31
0.0
  0
LINE
  5
131
330
A3
100
AcDbEntity
  8
0
  6
Continuous
 62
     0
370
     0
100
AcDbLine
 10
33.994019
 20
15.001644
 30
0.0
 11
4.994019
 21
15.001644
 31
0.0
  0
LINE
  5
132
330
A3
100
AcDbEntity
  8
0
  6
Continuous
 62
     0
370
     0
100
AcDbLine
 10
33.994019
 20
10.001644
 30
0.0
 11
4.994019
 21
10.001644
 31
0.0
  0
LINE
  5
133
330
A3
100
AcDbEntity
  8
0
  6
Continuous
 62
     0
370
     0
100
AcDbLine
 10
22.683306
 20
10.001644
 30
0.0
 11
22.683306
 21
25.001644
 31
0.0
  0
LINE
  5
134
330
A3
100
AcDbEntity
  8
0
  6
Continuous
 62
     0
370
     0
100
AcDbLine
 10
28.382471
 20
10.001644
 30
0.0
 11
28.382471
 21
25.001644
 31
0.0
  0
MTEXT
  5
135
102
{ACAD_XDICTIONARY
360
2C5
102
}
330
A3
100
AcDbEntity
  8
0
  6
Continuous
 62
     0
370
     0
100
AcDbMText
 10
5.977431
 20
23.196002
 30
0.0
 40
1.9
 41
0.0
 71
     1
 72
     1
  1
{\fArial|b0|i0|c0|p0;\W0.89000x;FILETTATURE}\P{\W0.89000x;}\P
  7
ISO
 73
     2
 44
0.899982
  0
MTEXT
  5
136
102
{ACAD_XDICTIONARY
360
2C7
102
}
330
A3
100
AcDbEntity
  8
0
  6
Continuous
 62
     0
370
     0
100
AcDbMText
 10
9.846909
 20
22.975378
 30
0.0
 40
1.6
 41
0.0
 71
     1
 72
     1
  1
{\fArial|b0|i0|c0|p0;\W1.13000x;                     M      F}\P{\W1.13000x;}\P{\fArial|b0|i0|c0|p0;\W1.13000x;Metric          6H     6g}\P{\W1.13000x;}\P{\fArial|b0|i0|c0|p0;\W1.13000x;GAS              A       A}\P{\W1.13000x;}\P{\W1.13000x;}\P
  7
ISO
 73
     2
 44
0.929981
  0
MTEXT
  5
137
330
A3
100
AcDbEntity
  8
0
  6
Continuous
 62
     0
370
     0
100
AcDbMText
 10
11.026137
 20
8.312628
 30
0.0
 40
1.8
 41
0.0
 71
     1
 72
     1
  1
{\W1.12;{\fArial|b0|i0;(min):-0.1:-0.2}}
  7
ISO
 73
     1
 44
1.0
  0
LINE
  5
138
330
A3
100
AcDbEntity
  8
0
  6
Continuous
 62
     0
370
     0
100
AcDbLine
 10
33.994019
 20
25.0
 30
0.0
 11
204.999997
 21
25.0
 31
0.0
  0
LINE
  5
139
330
A3
100
AcDbEntity
  8
0
  6
Continuous
 62
     0
370
     0
100
AcDbLine
 10
196.859523
 20
9.43423
 30
0.0
 11
199.002932
 21
13.146722
 31
0.0
  0
LINE
  5
13A
330
A3
100
AcDbEntity
  8
0
  6
Continuous
 62
     0
370
     0
100
AcDbLine
 10
193.479495
 20
9.43423
 30
0.0
 11
195.622903
 21
13.146722
 31
0.0
  0
LINE
  5
13B
330
A3
100
AcDbEntity
  8
0
  6
Continuous
 62
     0
370
     0
100
AcDbLine
 10
190.08424
 20
9.43423
 30
0.0
 11
192.227649
 21
13.146722
 31
0.0
  0
LINE
  5
13C
330
A3
100
AcDbEntity
  8
0
  6
Continuous
 62
     0
370
     0
100
AcDbLine
 10
185.366934
 20
9.43423
 30
0.0
 11
187.510342
 21
13.146722
 31
0.0
  0
LINE
  5
13D
330
A3
100
AcDbEntity
  8
0
  6
Continuous
 62
     0
370
     0
100
AcDbLine
 10
7.267224
 20
35.771477
 30
0.0
 11
9.410632
 21
39.48397
 31
0.0
  0
LINE
  5
13E
330
A3
100
AcDbEntity
  8
0
  6
Continuous
 62
     0
370
     0
100
AcDbLine
 10
6.928555
 20
50.528411
 30
0.0
 11
9.071964
 21
54.240903
 31
0.0
  0
LINE
  5
13F
330
A3
100
AcDbEntity
  8
0
  6
Continuous
 62
     0
370
     0
100
AcDbLine
 10
4.994019
 20
66.001644
 30
0.0
 11
4.994019
 21
5.0
 31
0.0
  0
LINE
  5
140
330
A3
100
AcDbEntity
  8
0
  6
Continuous
 62
     0
370
     0
100
AcDbLine
 10
164.999997
 20
9.0
 30
0.0
 11
164.999997
 21
60.001644
 31
0.0
  0
LINE
  5
141
330
A3
100
AcDbEntity
  8
0
  6
Continuous
 62
     0
370
     0
100
AcDbLine
 10
40.956379
 20
56.358258
 30
0.0
 11
36.259064
 21
56.358258
 31
0.0
  0
LINE
  5
142
330
A3
100
AcDbEntity
  8
0
  6
Continuous
 62
     0
370
     0
100
AcDbLine
 10
42.409158
 20
57.424022
 30
0.0
 11
42.409158
 21
56.188704
 31
0.0
  0
LINE
  5
143
330
A3
100
AcDbEntity
  8
0
  6
Continuous
 62
     0
370
     0
100
AcDbLine
 10
42.409158
 20
56.188704
 30
0.0
 11
37.566564
 21
50.01212
 31
0.0
  0
LINE
  5
144
330
A3
100
AcDbEntity
  8
0
  6
Continuous
 62
     0
370
     0
100
AcDbLine
 10
37.566564
 20
50.01212
 30
0.0
 11
42.50601
 21
50.01212
 31
0.0
  0
LINE
  5
145
330
A3
100
AcDbEntity
  8
0
  6
Continuous
 62
     0
370
     0
100
AcDbLine
 10
42.50601
 20
48.994801
 30
0.0
 11
36.162212
 21
48.994801
 31
0.0
  0
LINE
  5
146
330
A3
100
AcDbEntity
  8
0
  6
Continuous
 62
     0
370
     0
100
AcDbLine
 10
36.162212
 20
48.994801
 30
0.0
 11
36.162212
 21
50.181673
 31
0.0
  0
LINE
  5
147
330
A3
100
AcDbEntity
  8
0
  6
Continuous
 62
     0
370
     0
100
AcDbLine
 10
36.162212
 20
50.181673
 30
0.0
 11
40.956379
 21
56.358258
 31
0.0
  0
LINE
  5
148
330
A3
100
AcDbEntity
  8
0
  6
Continuous
 62
     0
370
     0
100
AcDbLine
 10
36.259064
 20
57.424022
 30
0.0
 11
36.259064
 21
56.358258
 31
0.0
  0
LINE
  5
149
330
A3
100
AcDbEntity
  8
0
  6
Continuous
 62
     0
370
     0
100
AcDbLine
 10
66.837562
 20
48.994801
 30
0.0
 11
66.837562
 21
52.791642
 31
0.0
  0
LINE
  5
14A
330
A3
100
AcDbEntity
  8
0
  6
Continuous
 62
     0
370
     0
100
AcDbLine
 10
66.837562
 20
52.791642
 30
0.0
 11
70.784294
 21
52.791642
 31
0.0
  0
LINE
  5
14B
330
A3
100
AcDbEntity
  8
0
  6
Continuous
 62
     0
370
     0
100
AcDbLine
 10
70.784294
 20
52.791642
 30
0.0
 11
70.784294
 21
48.994801
 31
0.0
  0
LINE
  5
14C
330
A3
100
AcDbEntity
  8
0
  6
Continuous
 62
     0
370
     0
100
AcDbLine
 10
72.004539
 20
48.994801
 30
0.0
 11
72.004539
 21
57.424022
 31
0.0
  0
LINE
  5
14D
330
A3
100
AcDbEntity
  8
0
  6
Continuous
 62
     0
370
     0
100
AcDbLine
 10
70.800214
 20
57.424022
 30
0.0
 11
70.800214
 21
53.783689
 31
0.0
  0
LINE
  5
14E
330
A3
100
AcDbEntity
  8
0
  6
Continuous
 62
     0
370
     0
100
AcDbLine
 10
70.800214
 20
53.783689
 30
0.0
 11
66.817638
 21
53.783689
 31
0.0
  0
LINE
  5
14F
330
A3
100
AcDbEntity
  8
0
  6
Continuous
 62
     0
370
     0
100
AcDbLine
 10
66.817638
 20
53.783689
 30
0.0
 11
66.817638
 21
57.424022
 31
0.0
  0
LINE
  5
150
330
A3
100
AcDbEntity
  8
0
  6
Continuous
 62
     0
370
     0
100
AcDbLine
 10
72.954831
 20
57.424022
 30
0.0
 11
72.954831
 21
48.994801
 31
0.0
  0
LINE
  5
151
330
A3
100
AcDbEntity
  8
0
  6
Continuous
 62
     0
370
     0
100
AcDbLine
 10
78.366273
 20
48.994801
 30
0.0
 11
78.366273
 21
50.049878
 31
0.0
  0
LINE
  5
152
330
A3
100
AcDbEntity
  8
0
  6
Continuous
 62
     0
370
     0
100
AcDbLine
 10
78.366273
 20
50.049878
 30
0.0
 11
74.143271
 21
50.049878
 31
0.0
  0
LINE
  5
153
330
A3
100
AcDbEntity
  8
0
  6
Continuous
 62
     0
370
     0
100
AcDbLine
 10
74.143271
 20
50.049878
 30
0.0
 11
74.143271
 21
52.773894
 31
0.0
  0
LINE
  5
154
330
A3
100
AcDbEntity
  8
0
  6
Continuous
 62
     0
370
     0
100
AcDbLine
 10
74.143271
 20
52.773894
 30
0.0
 11
78.06628
 21
52.773894
 31
0.0
  0
LINE
  5
155
330
A3
100
AcDbEntity
  8
0
  6
Continuous
 62
     0
370
     0
100
AcDbLine
 10
78.06628
 20
52.773894
 30
0.0
 11
78.06628
 21
53.778086
 31
0.0
  0
LINE
  5
156
330
A3
100
AcDbEntity
  8
0
  6
Continuous
 62
     0
370
     0
100
AcDbLine
 10
78.06628
 20
53.778086
 30
0.0
 11
74.166348
 21
53.778086
 31
0.0
  0
LINE
  5
157
330
A3
100
AcDbEntity
  8
0
  6
Continuous
 62
     0
370
     0
100
AcDbLine
 10
74.166348
 20
53.778086
 30
0.0
 11
74.166348
 21
56.340508
 31
0.0
  0
LINE
  5
158
330
A3
100
AcDbEntity
  8
0
  6
Continuous
 62
     0
370
     0
100
AcDbLine
 10
74.166348
 20
56.340508
 30
0.0
 11
81.804675
 21
56.340508
 31
0.0
  0
LINE
  5
159
330
A3
100
AcDbEntity
  8
0
  6
Continuous
 62
     0
370
     0
100
AcDbLine
 10
81.804675
 20
56.340508
 30
0.0
 11
81.804675
 21
48.994801
 31
0.0
  0
LINE
  5
15A
330
A3
100
AcDbEntity
  8
0
  6
Continuous
 62
     0
370
     0
100
AcDbLine
 10
82.981577
 20
48.994801
 30
0.0
 11
82.981577
 21
56.363593
 31
0.0
  0
LINE
  5
15B
330
A3
100
AcDbEntity
  8
0
  6
Continuous
 62
     0
370
     0
100
AcDbLine
 10
82.981577
 20
56.363593
 30
0.0
 11
86.939016
 21
56.363593
 31
0.0
  0
LINE
  5
15C
330
A3
100
AcDbEntity
  8
0
  6
Continuous
 62
     0
370
     0
100
AcDbLine
 10
86.939016
 20
56.363593
 30
0.0
 11
86.939016
 21
48.994801
 31
0.0
  0
LINE
  5
15D
330
A3
100
AcDbEntity
  8
0
  6
Continuous
 62
     0
370
     0
100
AcDbLine
 10
88.115804
 20
48.994801
 30
0.0
 11
88.115804
 21
56.363594
 31
0.0
  0
LINE
  5
15E
330
A3
100
AcDbEntity
  8
0
  6
Continuous
 62
     0
370
     0
100
AcDbLine
 10
88.115804
 20
56.363594
 30
0.0
 11
90.931197
 21
56.363594
 31
0.0
  0
LINE
  5
15F
330
A3
100
AcDbEntity
  8
0
  6
Continuous
 62
     0
370
     0
100
AcDbLine
 10
90.931197
 20
56.363594
 30
0.0
 11
90.931197
 21
57.424022
 31
0.0
  0
LINE
  5
160
330
A3
100
AcDbEntity
  8
0
  6
Continuous
 62
     0
370
     0
100
AcDbLine
 10
92.97425
 20
57.424022
 30
0.0
 11
92.97425
 21
48.994801
 31
0.0
  0
LINE
  5
161
330
A3
100
AcDbEntity
  8
0
  6
Continuous
 62
     0
370
     0
100
AcDbLine
 10
91.774266
 20
48.994801
 30
0.0
 11
91.774266
 21
57.424022
 31
0.0
  0
LINE
  5
162
330
A3
100
AcDbEntity
  8
0
  6
Continuous
 62
     0
370
     0
100
AcDbLine
 10
93.879321
 20
51.248626
 30
0.0
 11
95.089474
 21
51.248626
 31
0.0
  0
LINE
  5
163
330
A3
100
AcDbEntity
  8
0
  6
Continuous
 62
     0
370
     0
100
AcDbLine
 10
95.089474
 20
51.248626
 30
0.0
 11
95.089474
 21
48.994801
 31
0.0
  0
LINE
  5
164
330
A3
100
AcDbEntity
  8
0
  6
Continuous
 62
     0
370
     0
100
AcDbLine
 10
93.879321
 20
48.994801
 30
0.0
 11
93.879321
 21
51.248626
 31
0.0
  0
SPLINE
  5
165
330
A3
100
AcDbEntity
  8
0
  6
Continuous
 62
     0
370
     0
100
AcDbSpline
210
0.0
220
0.0
230
1.0
 70
     8
 71
     5
 72
    15
 73
     9
 74
     0
 42
0.000000001
 43
0.0
 40
0.0
 40
0.0
 40
0.0
 40
0.0
 40
0.0
 40
0.0
 40
0.2334427332132626
 40
0.4991056926515804
 40
0.7660364092297105
 40
1.0
 40
1.0
 40
1.0
 40
1.0
 40
1.0
 40
1.0
 10
56.26721854988386
 20
55.07051027561062
 30
0.0
 10
56.0915624764088
 20
56.5176365686423
 30
0.0
 10
53.73569883386423
 20
56.80706181837664
 30
0.0
 10
52.19612176699866
 20
55.9387860691736
 30
0.0
 10
51.92747064986639
 20
52.6310688463536
 30
0.0
 10
52.43377467830797
 20
50.55340908015259
 30
0.0
 10
53.82869345133309
 20
49.55075728064486
 30
0.0
 10
56.03989880003724
 20
50.06758818749051
 30
0.0
 10
56.21555529970061
 20
51.307982073424
 30
0.0
  0
LINE
  5
166
330
A3
100
AcDbEntity
  8
0
  6
Continuous
 62
     0
370
     0
100
AcDbLine
 10
56.267219
 20
55.07051
 30
0.0
 11
57.503195
 21
55.07051
 31
0.0
  0
LINE
  5
167
330
A3
100
AcDbEntity
  8
0
  6
Continuous
 62
     0
370
     0
100
AcDbLine
 10
56.215555
 20
51.307982
 30
0.0
 11
57.451532
 21
51.307982
 31
0.0
  0
SPLINE
  5
168
330
A3
100
AcDbEntity
  8
0
  6
Continuous
 62
     0
370
     0
100
AcDbSpline
210
0.0
220
0.0
230
1.0
 70
     8
 71
     5
 72
    16
 73
    10
 74
     0
 42
0.000000001
 43
0.0
 40
0.0
 40
0.0
 40
0.0
 40
0.0
 40
0.0
 40
0.0
 40
0.1721350395165198
 40
0.3815124402403998
 40
0.5949422142071971
 40
0.8071618783305199
 40
1.0
 40
1.0
 40
1.0
 40
1.0
 40
1.0
 40
1.0
 10
57.50319536212282
 20
55.07051027561062
 30
0.0
 10
57.49748317052058
 20
56.16095661737202
 30
0.0
 10
56.22943148811225
 20
57.61717636897336
 30
0.0
 10
53.44101098288692
 20
57.68189717406673
 30
0.0
 10
51.26730962715556
 20
56.69813348483947
 30
0.0
 10
50.73028147318738
 20
53.46209057750599
 30
0.0
 10
50.80125329485398
 20
49.51411665236381
 30
0.0
 10
54.19782132920614
 20
48.17439438630836
 30
0.0
 10
57.48773440230082
 20
49.66199415540117
 30
0.0
 10
57.45153211193951
 20
51.30798207342403
 30
0.0
  0
SPLINE
  5
169
330
A3
100
AcDbEntity
  8
0
  6
Continuous
 62
     0
370
     0
100
AcDbSpline
210
0.0
220
0.0
230
1.0
 70
     8
 71
     5
 72
    15
 73
     9
 74
     0
 42
0.000000001
 43
0.0
 40
0.0
 40
0.0
 40
0.0
 40
0.0
 40
0.0
 40
0.0
 40
0.2334427332132626
 40
0.4991056926515804
 40
0.7660364092297105
 40
1.0
 40
1.0
 40
1.0
 40
1.0
 40
1.0
 40
1.0
 10
63.57481282863853
 20
55.07007585032133
 30
0.0
 10
63.39916018044994
 20
56.51717392444829
 30
0.0
 10
61.04334247715201
 20
56.80659353040187
 30
0.0
 10
59.50379543197755
 20
55.93833471254115
 30
0.0
 10
59.2351495535313
 20
52.63068199007446
 30
0.0
 10
59.74144370906458
 20
50.55306273815569
 30
0.0
 10
61.13633528122955
 20
49.55043049031789
 30
0.0
 10
63.34749751151793
 20
50.06725131898153
 30
0.0
 10
63.52315058588664
 20
51.30762101728396
 30
0.0
  0
LINE
  5
16A
330
A3
100
AcDbEntity
  8
0
  6
Continuous
 62
     0
370
     0
100
AcDbLine
 10
63.574813
 20
55.070076
 30
0.0
 11
64.810766
 21
55.070076
 31
0.0
  0
LINE
  5
16B
330
A3
100
AcDbEntity
  8
0
  6
Continuous
 62
     0
370
     0
100
AcDbLine
 10
63.523151
 20
51.307621
 30
0.0
 11
64.759103
 21
51.307621
 31
0.0
  0
SPLINE
  5
16C
330
A3
100
AcDbEntity
  8
0
  6
Continuous
 62
     0
370
     0
100
AcDbSpline
210
0.0
220
0.0
230
1.0
 70
     8
 71
     5
 72
    16
 73
    10
 74
     0
 42
0.000000001
 43
0.0
 40
0.0
 40
0.0
 40
0.0
 40
0.0
 40
0.0
 40
0.0
 40
0.1721350395165198
 40
0.3815124402403998
 40
0.5949422142071971
 40
0.8071618783305199
 40
1.0
 40
1.0
 40
1.0
 40
1.0
 40
1.0
 40
1.0
 10
64.81076553937919
 20
55.07007585032133
 30
0.0
 10
64.80505345916447
 20
56.16050092842281
 30
0.0
 10
63.53702650371315
 20
57.61669228379731
 30
0.0
 10
60.74866037257596
 20
57.68141182683758
 30
0.0
 10
58.57500140393392
 20
56.69766732096284
 30
0.0
 10
58.03798372199327
 20
53.46168751633641
 30
0.0
 10
58.1089541597122
 20
49.51379057652761
 30
0.0
 10
61.50545596112374
 20
48.17409443500267
 30
0.0
 10
64.79530488104535
 20
49.66166519595961
 30
0.0
 10
64.75910329662725
 20
51.30762101728399
 30
0.0
  0
LINE
  5
16D
330
A3
100
AcDbEntity
  8
0
  6
Continuous
 62
     0
370
     0
100
AcDbLine
 10
65.610484
 20
57.424022
 30
0.0
 11
65.610484
 21
48.994801
 31
0.0
  0
LINE
  5
16E
330
A3
100
AcDbEntity
  8
0
  6
Continuous
 62
     0
370
     0
100
AcDbLine
 10
93.879321
 20
48.994801
 30
0.0
 11
95.089474
 21
48.994801
 31
0.0
  0
LINE
  5
16F
330
A3
100
AcDbEntity
  8
0
  6
Continuous
 62
     0
370
     0
100
AcDbLine
 10
72.954831
 20
48.994801
 30
0.0
 11
78.366273
 21
48.994801
 31
0.0
  0
LINE
  5
170
330
A3
100
AcDbEntity
  8
0
  6
Continuous
 62
     0
370
     0
100
AcDbLine
 10
91.774266
 20
48.994801
 30
0.0
 11
92.97425
 21
48.994801
 31
0.0
  0
LINE
  5
171
330
A3
100
AcDbEntity
  8
0
  6
Continuous
 62
     0
370
     0
100
AcDbLine
 10
86.939016
 20
48.994801
 30
0.0
 11
88.115804
 21
48.994801
 31
0.0
  0
LINE
  5
172
330
A3
100
AcDbEntity
  8
0
  6
Continuous
 62
     0
370
     0
100
AcDbLine
 10
66.837562
 20
48.994801
 30
0.0
 11
65.610484
 21
48.994801
 31
0.0
  0
LINE
  5
173
330
A3
100
AcDbEntity
  8
0
  6
Continuous
 62
     0
370
     0
100
AcDbLine
 10
91.774266
 20
57.424022
 30
0.0
 11
92.97425
 21
57.424022
 31
0.0
  0
LINE
  5
174
330
A3
100
AcDbEntity
  8
0
  6
Continuous
 62
     0
370
     0
100
AcDbLine
 10
43.267048
 20
57.424022
 30
0.0
 11
44.432884
 21
57.424022
 31
0.0
  0
LINE
  5
175
330
A3
100
AcDbEntity
  8
0
  6
Continuous
 62
     0
370
     0
100
AcDbLine
 10
72.954831
 20
57.424022
 30
0.0
 11
90.931197
 21
57.424022
 31
0.0
  0
LINE
  5
176
330
A3
100
AcDbEntity
  8
0
  6
Continuous
 62
     0
370
     0
100
AcDbLine
 10
70.800214
 20
57.424022
 30
0.0
 11
72.004539
 21
57.424022
 31
0.0
  0
LINE
  5
177
330
A3
100
AcDbEntity
  8
0
  6
Continuous
 62
     0
370
     0
100
AcDbLine
 10
42.50601
 20
50.01212
 30
0.0
 11
42.50601
 21
48.994801
 31
0.0
  0
LINE
  5
178
330
A3
100
AcDbEntity
  8
0
  6
Continuous
 62
     0
370
     0
100
AcDbLine
 10
44.427715
 20
57.424022
 30
0.0
 11
44.427715
 21
51.953945
 31
0.0
  0
LINE
  5
179
330
A3
100
AcDbEntity
  8
0
  6
Continuous
 62
     0
370
     0
100
AcDbLine
 10
43.267048
 20
57.424022
 30
0.0
 11
43.267048
 21
51.953945
 31
0.0
  0
LINE
  5
17A
330
A3
100
AcDbEntity
  8
0
  6
Continuous
 62
     0
370
     0
100
AcDbLine
 10
48.95896
 20
57.424022
 30
0.0
 11
48.95896
 21
51.953945
 31
0.0
  0
LINE
  5
17B
330
A3
100
AcDbEntity
  8
0
  6
Continuous
 62
     0
370
     0
100
AcDbLine
 10
50.119627
 20
57.424022
 30
0.0
 11
50.119627
 21
51.953945
 31
0.0
  0
SPLINE
  5
17C
330
A3
100
AcDbEntity
  8
0
  6
Continuous
 62
     0
370
     0
100
AcDbSpline
210
0.0
220
0.0
230
1.0
 70
     8
 71
     4
 72
    10
 73
     5
 74
     0
 42
0.000000001
 43
0.0
 40
0.0
 40
0.0
 40
0.0
 40
0.0
 40
0.0
 40
1.0
 40
1.0
 40
1.0
 40
1.0
 40
1.0
 10
44.42771511874446
 20
51.95394487351538
 30
0.0
 10
44.37409697240503
 20
50.02036616748131
 30
0.0
 10
46.68772977037872
 20
49.55218471544271
 30
0.0
 10
48.99292763718688
 20
49.9598835740714
 30
0.0
 10
48.95895974133157
 20
51.95394487351538
 30
0.0
  0
SPLINE
  5
17D
330
A3
100
AcDbEntity
  8
0
  6
Continuous
 62
     0
370
     0
100
AcDbSpline
210
0.0
220
0.0
230
1.0
 70
     8
 71
     4
 72
    10
 73
     5
 74
     0
 42
0.000000001
 43
0.0
 40
0.0
 40
0.0
 40
0.0
 40
0.0
 40
0.0
 40
1.0
 40
1.0
 40
1.0
 40
1.0
 40
1.0
 10
43.26704777682892
 20
51.95394487351538
 30
0.0
 10
43.21083329266105
 20
49.06803854730373
 30
0.0
 10
46.71957370545999
 20
47.92775599369264
 30
0.0
 10
50.12642719445569
 20
49.04255729590926
 30
0.0
 10
50.11962708324711
 20
51.95394487351538
 30
0.0
  0
LINE
  5
17E
330
A3
100
AcDbEntity
  8
0
  6
Continuous
 62
     0
370
     0
100
AcDbLine
 10
48.95896
 20
57.424022
 30
0.0
 11
50.119627
 21
57.424022
 31
0.0
  0
LINE
  5
17F
330
A3
100
AcDbEntity
  8
0
  6
Continuous
 62
     0
370
     0
100
AcDbLine
 10
65.610484
 20
57.424022
 30
0.0
 11
66.817638
 21
57.424022
 31
0.0
  0
HATCH
  5
180
330
A3
100
AcDbEntity
  8
0
  6
Continuous
 62
     0
370
     0
100
AcDbHatch
 10
0.0
 20
0.0
 30
0.0
210
0.0
220
0.0
230
1.0
  2
SOLID
 70
     1
 71
     0
 91
        8
 92
        1
 93
       10
 72
     1
 10
42.40917149783991
 20
56.18870871031692
 11
42.40917149783991
 21
57.42402642712804
 72
     1
 10
42.40917149783991
 20
57.42402642712804
 11
36.25907753794809
 21
57.42402642712804
 72
     1
 10
36.25907753794809
 20
57.42402642712804
 11
36.25907753794809
 21
56.3582630300581
 72
     1
 10
36.25907753794809
 20
56.35826303005811
 11
40.95639299104869
 21
56.35826303005811
 72
     1
 10
40.95639299104869
 20
56.35826303005811
 11
36.16222563749534
 21
50.18167784961437
 72
     1
 10
36.16222563749534
 20
50.18167784961437
 11
36.16222563749534
 21
48.9948050993724
 72
     1
 10
36.16222563749534
 20
48.9948050993724
 11
42.50602339829265
 21
48.9948050993724
 72
     1
 10
42.50602339829265
 20
48.9948050993724
 11
42.50602339829265
 21
50.01212489131797
 72
     1
 10
42.50602339829265
 20
50.01212489131797
 11
37.56657762110763
 21
50.01212489131797
 72
     1
 10
37.56657762110763
 20
50.01212489131797
 11
42.40917149783991
 21
56.18870871031692
 97
        0
 92
        1
 93
        8
 72
     1
 10
44.42772863861592
 20
57.42402642712804
 11
43.26706129670038
 21
57.42402642712804
 72
     1
 10
43.26706129670038
 20
57.42402642712804
 11
43.26706129670038
 21
51.95394940526037
 72
     4
 94
        4
 73
     0
 74
     0
 95
       10
 96
        5
 40
0.0
 40
0.0
 40
0.0
 40
0.0
 40
0.0
 40
1.0
 40
1.0
 40
1.0
 40
1.0
 40
1.0
 10
43.26706129670038
 20
51.95394940526037
 10
43.21084681253251
 20
49.06804307904872
 10
46.71958722533145
 20
47.92776052543763
 10
50.12644071432715
 20
49.04256182765425
 10
50.11964060311857
 20
51.95394940526037
 72
     1
 10
50.11964060311857
 20
51.95394940526037
 11
50.11964060311857
 21
57.42402642712804
 72
     1
 10
50.11964060311857
 20
57.42402642712804
 11
48.95897326120303
 21
57.42402642712804
 72
     1
 10
48.95897326120303
 20
57.42402642712804
 11
48.95897326120303
 21
51.95394940526037
 72
     4
 94
        4
 73
     0
 74
     0
 95
       10
 96
        5
 40
0.0
 40
0.0
 40
0.0
 40
0.0
 40
0.0
 40
1.0
 40
1.0
 40
1.0
 40
1.0
 40
1.0
 10
48.95897326120303
 20
51.95394940526037
 10
48.99294115705834
 20
49.95988810581639
 10
46.68774329025018
 20
49.5521892471877
 10
44.37411049227649
 20
50.02037069922631
 10
44.42772863861592
 20
51.95394940526037
 72
     1
 10
44.42772863861592
 20
51.95394940526037
 11
44.42772863861592
 21
57.42402642712804
 97
        0
 92
        1
 93
        4
 72
     4
 94
        5
 73
     0
 74
     0
 95
       15
 96
        9
 40
0.0
 40
0.0
 40
0.0
 40
0.0
 40
0.0
 40
0.0
 40
0.2334427332132626
 40
0.4991056926515804
 40
0.7660364092297105
 40
1.0
 40
1.0
 40
1.0
 40
1.0
 40
1.0
 40
1.0
 10
56.26723206975532
 20
55.07051480735561
 10
56.09157599628026
 20
56.51764110038728
 10
53.73571235373569
 20
56.80706635012163
 10
52.19613528687012
 20
55.93879060091858
 10
51.92748416973785
 20
52.63107337809858
 10
52.43378819817943
 20
50.55341361189757
 10
53.82870697120455
 20
49.55076181238985
 10
56.03991231990869
 20
50.06759271923549
 10
56.21556881957207
 20
51.30798660516898
 72
     1
 10
56.21556881957207
 20
51.30798660516901
 11
57.45154563181097
 21
51.30798660516901
 72
     4
 94
        5
 73
     0
 74
     0
 95
       16
 96
       10
 40
0.0
 40
0.0
 40
0.0
 40
0.0
 40
0.0
 40
0.0
 40
0.1928381216694801
 40
0.4050577857928029
 40
0.6184875597596002
 40
0.8278649604834802
 40
1.0
 40
1.0
 40
1.0
 40
1.0
 40
1.0
 40
1.0
 10
57.45154563181097
 20
51.30798660516901
 10
57.48774792217228
 20
49.66199868714617
 10
54.19783484907759
 20
48.17439891805334
 10
50.80126681472544
 20
49.5141211841088
 10
50.73029499305883
 20
53.46209510925098
 10
51.26732314702701
 20
56.69813801658445
 10
53.44102450275838
 20
57.68190170581173
 10
56.22944500798371
 20
57.61718090071835
 10
57.49749669039204
 20
56.16096114911701
 10
57.50320888199428
 20
55.07051480735561
 72
     1
 10
57.50320888199428
 20
55.07051480735561
 11
56.26723206975532
 21
55.07051480735561
 97
        0
 92
        1
 93
        4
 72
     4
 94
        5
 73
     0
 74
     0
 95
       15
 96
        9
 40
0.0
 40
0.0
 40
0.0
 40
0.0
 40
0.0
 40
0.0
 40
0.2334427332132626
 40
0.4991056926515804
 40
0.7660364092297105
 40
1.0
 40
1.0
 40
1.0
 40
1.0
 40
1.0
 40
1.0
 10
63.57482634850999
 20
55.07008038206632
 10
63.3991737003214
 20
56.51717845619328
 10
61.04335599702347
 20
56.80659806214686
 10
59.50380895184901
 20
55.93833924428613
 10
59.23516307340276
 20
52.63068652181946
 10
59.74145722893604
 20
50.55306726990067
 10
61.13634880110101
 20
49.55043502206287
 10
63.34751103138939
 20
50.06725585072653
 10
63.5231641057581
 20
51.30762554902894
 72
     1
 10
63.5231641057581
 20
51.30762554902897
 11
64.7591168164987
 21
51.30762554902897
 72
     4
 94
        5
 73
     0
 74
     0
 95
       16
 96
       10
 40
0.0
 40
0.0
 40
0.0
 40
0.0
 40
0.0
 40
0.0
 40
0.1928381216694801
 40
0.4050577857928029
 40
0.6184875597596002
 40
0.8278649604834802
 40
1.0
 40
1.0
 40
1.0
 40
1.0
 40
1.0
 40
1.0
 10
64.7591168164987
 20
51.30762554902897
 10
64.79531840091681
 20
49.66166972770459
 10
61.5054694809952
 20
48.17409896674766
 10
58.10896767958366
 20
49.5137951082726
 10
58.03799724186473
 20
53.4616920480814
 10
58.57501492380538
 20
56.69767185270781
 10
60.74867389244741
 20
57.68141635858257
 10
63.53704002358461
 20
57.61669681554228
 10
64.80506697903593
 20
56.16050546016778
 10
64.81077905925065
 20
55.07008038206632
 72
     1
 10
64.81077905925065
 20
55.07008038206632
 11
63.57482634850999
 21
55.07008038206632
 97
        0
 92
        1
 93
       12
 72
     1
 10
66.8375752859406
 20
52.79164632058126
 11
66.8375752859406
 21
48.9948050993724
 72
     1
 10
66.8375752859406
 20
48.9948050993724
 11
65.61049777839571
 21
48.9948050993724
 72
     1
 10
65.61049777839571
 20
48.9948050993724
 11
65.61049777839571
 21
57.42402642712804
 72
     1
 10
65.61049777839571
 20
57.42402642712804
 11
66.81765151319041
 21
57.42402642712804
 72
     1
 10
66.81765151319041
 20
57.42402642712804
 11
66.81765151319041
 21
53.78369379860683
 72
     1
 10
66.81765151319041
 20
53.78369379860683
 11
70.80022771704307
 21
53.78369379860683
 72
     1
 10
70.80022771704307
 20
53.78369379860683
 11
70.80022771704307
 21
57.42402642712804
 72
     1
 10
70.80022771704307
 20
57.42402642712804
 11
72.00455214154272
 21
57.42402642712804
 72
     1
 10
72.00455214154272
 20
57.42402642712804
 11
72.00455214154272
 21
48.9948050993724
 72
     1
 10
72.00455214154272
 20
48.9948050993724
 11
70.78430716100911
 21
48.9948050993724
 72
     1
 10
70.78430716100911
 20
48.9948050993724
 11
70.78430716100911
 21
52.79164632058126
 72
     1
 10
70.78430716100911
 20
52.79164632058126
 11
66.8375752859406
 21
52.79164632058126
 97
        0
 92
        1
 93
       20
 72
     1
 10
74.1432850173419
 20
52.77389856656481
 11
74.1432850173419
 21
50.04988247524415
 72
     1
 10
74.1432850173419
 20
50.04988247524415
 11
78.36628686061658
 21
50.04988247524415
 72
     1
 10
78.36628686061658
 20
50.04988247524415
 11
78.36628686061658
 21
48.9948050993724
 72
     1
 10
78.36628686061658
 20
48.9948050993724
 11
72.95484414687735
 21
48.9948050993724
 72
     1
 10
72.95484414687735
 20
48.9948050993724
 11
72.95484414687735
 21
57.42402642712804
 72
     1
 10
72.95484414687735
 20
57.42402642712804
 11
90.93121006891079
 21
57.42402642712804
 72
     1
 10
90.93121006891079
 20
57.42402642712804
 11
90.93121006891079
 21
56.36359868057588
 72
     1
 10
90.93121006891079
 20
56.36359868057588
 11
88.1158177917946
 21
56.36359868057588
 72
     1
 10
88.1158177917946
 20
56.36359868057588
 11
88.1158177917946
 21
48.9948050993724
 72
     1
 10
88.1158177917946
 20
48.9948050993724
 11
86.93902944230422
 21
48.9948050993724
 72
     1
 10
86.93902944230422
 20
48.9948050993724
 11
86.93902944230422
 21
56.36359763878971
 72
     1
 10
86.93902944230422
 20
56.36359763878971
 11
82.98159011981397
 21
56.36359763878971
 72
     1
 10
82.98159011981397
 20
56.36359763878971
 11
82.98159011981397
 21
48.9948050993724
 72
     1
 10
82.98159011981397
 20
48.9948050993724
 11
81.80468860234896
 21
48.9948050993724
 72
     1
 10
81.80468860234896
 20
48.9948050993724
 11
81.80468860234896
 21
56.34051252574247
 72
     1
 10
81.80468860234896
 20
56.34051252574247
 11
74.16636153909849
 21
56.34051252574247
 72
     1
 10
74.16636153909849
 20
56.34051252574247
 11
74.16636153909849
 21
53.77809092821667
 72
     1
 10
74.16636153909849
 20
53.77809092821667
 11
78.06629316990211
 21
53.77809092821667
 72
     1
 10
78.06629316990211
 20
53.77809092821667
 11
78.06629316990211
 21
52.77389856656481
 72
     1
 10
78.06629316990211
 20
52.77389856656481
 11
74.1432850173419
 21
52.77389856656481
 97
        0
 92
        1
 93
        4
 72
     1
 10
92.97426317909913
 20
48.9948050993724
 11
92.97426317909913
 21
57.42402642712804
 72
     1
 10
92.97426317909913
 20
57.42402642712804
 11
91.77427974300872
 21
57.42402642712804
 72
     1
 10
91.77427974300872
 20
57.42402642712804
 11
91.77427974300872
 21
48.9948050993724
 72
     1
 10
91.77427974300872
 20
48.9948050993724
 11
92.97426317909913
 21
48.9948050993724
 97
        0
 92
        1
 93
        4
 72
     1
 10
95.08948725643631
 20
51.24863012315132
 11
93.8793344691926
 21
51.24863012315132
 72
     1
 10
93.8793344691926
 20
51.2486301231513
 11
93.8793344691926
 21
48.9948050993724
 72
     1
 10
93.8793344691926
 20
48.9948050993724
 11
95.08948725643631
 21
48.9948050993724
 72
     1
 10
95.08948725643631
 20
48.9948050993724
 11
95.08948725643631
 21
51.24863012315132
 97
        0
 75
     0
 76
     1
 98
        0
  0
LINE
  5
181
330
A3
100
AcDbEntity
  8
0
  6
Continuous
 62
     0
370
     0
100
AcDbLine
 10
82.981577
 20
48.994801
 30
0.0
 11
81.804675
 21
48.994801
 31
0.0
  0
LINE
  5
182
330
A3
100
AcDbEntity
  8
0
  6
Continuous
 62
     0
370
     0
100
AcDbLine
 10
72.004539
 20
48.994801
 30
0.0
 11
70.784294
 21
48.994801
 31
0.0
  0
LINE
  5
183
330
A3
100
AcDbEntity
  8
0
  6
Continuous
 62
     0
370
     0
100
AcDbLine
 10
36.259064
 20
57.424022
 30
0.0
 11
42.409158
 21
57.424022
 31
0.0
  0
LINE
  5
184
330
A3
100
AcDbEntity
  8
0
  6
Continuous
 62
     0
370
     0
100
AcDbLine
 10
119.855756
 20
50.854801
 30
0.0
 11
120.05125
 21
48.994801
 31
0.0
  0
LINE
  5
185
330
A3
100
AcDbEntity
  8
0
  6
Continuous
 62
     0
370
     0
100
AcDbLine
 10
120.302156
 20
50.854801
 30
0.0
 11
119.855756
 21
50.854801
 31
0.0
  0
LINE
  5
186
330
A3
100
AcDbEntity
  8
0
  6
Continuous
 62
     0
370
     0
100
AcDbLine
 10
124.696268
 20
55.858201
 30
0.0
 11
125.112908
 21
55.858201
 31
0.0
  0
LINE
  5
187
330
A3
100
AcDbEntity
  8
0
  6
Continuous
 62
     0
370
     0
100
AcDbLine
 10
125.112908
 20
55.858201
 30
0.0
 11
124.946738
 21
57.439201
 31
0.0
  0
SPLINE
  5
188
330
A3
100
AcDbEntity
  8
0
  6
Continuous
 62
     0
370
     0
100
AcDbSpline
210
0.0
220
0.0
230
1.0
 70
     8
 71
     4
 72
    28
 73
    23
 74
     0
 42
0.000000001
 43
0.0
 40
0.0
 40
0.0
 40
0.0
 40
0.0
 40
0.0
 40
0.127405170737824
 40
0.1790570703830522
 40
0.229234996645392
 40
0.2728250333062168
 40
0.3170194183616904
 40
0.3614015074276771
 40
0.4047305834733712
 40
0.4510905280114826
 40
0.4995783838396157
 40
0.5476939455233316
 40
0.593213881287513
 40
0.6356103427425196
 40
0.6757464599250582
 40
0.716067167241501
 40
0.7592937278673799
 40
0.8077487463717914
 40
0.8571505148781823
 40
0.905140876636556
 40
1.0
 40
1.0
 40
1.0
 40
1.0
 40
1.0
 10
124.9467379244089
 20
57.43920056759396
 30
0.0
 10
124.4331557341533
 20
57.46686555320022
 30
0.0
 10
124.049707094858
 20
58.07402732091489
 30
0.0
 10
121.3770473637787
 20
57.74434670172788
 30
0.0
 10
120.9142496780466
 20
57.29278350833604
 30
0.0
 10
120.1382411922321
 20
56.82532358323537
 30
0.0
 10
119.8792080680375
 20
55.54626700929911
 30
0.0
 10
120.0435569079098
 20
55.07053062534456
 30
0.0
 10
120.3360554438367
 20
54.36370759232776
 30
0.0
 10
121.0236146065758
 20
53.87453673850723
 30
0.0
 10
121.7518255775131
 20
53.2769330306583
 30
0.0
 10
122.5386290613172
 20
52.78378800342198
 30
0.0
 10
123.2802340423813
 20
52.2567643337793
 30
0.0
 10
123.832704494879
 20
51.71073808176501
 30
0.0
 10
124.149224097734
 20
51.11227454376487
 30
0.0
 10
124.145044451527
 20
50.48243291852096
 30
0.0
 10
123.8311456786719
 20
49.85938790363534
 30
0.0
 10
123.2134330084344
 20
49.34873809998533
 30
0.0
 10
122.3985669235051
 20
48.68773692132535
 30
0.0
 10
120.6736511221533
 20
49.47681798962475
 30
0.0
 10
120.5337683941828
 20
50.01301094580059
 30
0.0
 10
120.2731249418041
 20
50.66708072443323
 30
0.0
 10
120.3021560074244
 20
50.85480056762005
 30
0.0
  0
SPLINE
  5
189
330
A3
100
AcDbEntity
  8
0
  6
Continuous
 62
     0
370
     0
100
AcDbSpline
210
0.0
220
0.0
230
1.0
 70
     8
 71
     4
 72
    29
 73
    24
 74
     0
 42
0.000000001
 43
0.0
 40
0.0
 40
0.0
 40
0.0
 40
0.0
 40
0.0
 40
0.0894998499387415
 40
0.1356947331573027
 40
0.1829250805766358
 40
0.2283902431178748
 40
0.2701213334848787
 40
0.3092419031794409
 40
0.3492776884916112
 40
0.3922118295975847
 40
0.4381630809718829
 40
0.4858666928754979
 40
0.532655089161505
 40
0.5767335523798593
 40
0.6177644896855721
 40
0.6563485376742584
 40
0.6940138600152654
 40
0.7327146465570447
 40
0.7746530009135336
 40
0.8218777954132087
 40
0.8746691982659538
 40
1.0
 40
1.0
 40
1.0
 40
1.0
 40
1.0
 10
124.6962677203652
 20
55.85820056760058
 30
0.0
 10
124.5522307882052
 20
55.96902659096398
 30
0.0
 10
124.554739828397
 20
56.58218027375096
 30
0.0
 10
123.9960098698105
 20
57.27761506643464
 30
0.0
 10
122.7029119673221
 20
57.56668067873909
 30
0.0
 10
121.6741113632088
 20
57.37303984415324
 30
0.0
 10
121.1599467303304
 20
56.73365962984712
 30
0.0
 10
120.9909452425599
 20
56.11993840907883
 30
0.0
 10
121.0722538929935
 20
55.4850700603849
 30
0.0
 10
121.4497881464375
 20
54.8918422642252
 30
0.0
 10
122.172300024025
 20
54.38432692386844
 30
0.0
 10
122.9401046481331
 20
53.86352073409533
 30
0.0
 10
123.7276951723605
 20
53.34474401841833
 30
0.0
 10
124.4308026297891
 20
52.81754702322446
 30
0.0
 10
124.9628111401487
 20
52.26874977595924
 30
0.0
 10
125.2122968935195
 20
51.6694453591478
 30
0.0
 10
125.2177054408547
 20
51.07572004434152
 30
0.0
 10
125.175356065991
 20
50.47975402297222
 30
0.0
 10
124.8599323100248
 20
49.87380837863397
 30
0.0
 10
124.3368191732902
 20
49.30765293049623
 30
0.0
 10
123.1404806164836
 20
48.42193435314974
 30
0.0
 10
121.539380143289
 20
48.73499163297895
 30
0.0
 10
120.2920958929251
 20
48.85613503244266
 30
0.0
 10
120.0512498850196
 20
48.99480056762778
 30
0.0
  0
LINE
  5
18A
330
A3
100
AcDbEntity
  8
0
  6
Continuous
 62
     0
370
     0
100
AcDbLine
 10
110.364338
 20
48.994801
 30
0.0
 11
108.653138
 21
48.994801
 31
0.0
  0
ARC
  5
18B
330
A3
100
AcDbEntity
  8
0
  6
Continuous
 62
     0
370
     0
100
AcDbCircle
 10
110.209566
 20
50.434816
 30
0.0
 40
1.115999999995537
100
AcDbArc
 50
222.667976
 51
277.971755
  0
LINE
  5
18C
330
A3
100
AcDbEntity
  8
0
  6
Continuous
 62
     0
370
     0
100
AcDbLine
 10
110.364338
 20
49.329601
 30
0.0
 11
110.364338
 21
48.994801
 31
0.0
  0
LINE
  5
18D
330
A3
100
AcDbEntity
  8
0
  6
Continuous
 62
     0
370
     0
100
AcDbLine
 10
105.714338
 20
57.141601
 30
0.0
 11
105.714338
 21
57.476401
 31
0.0
  0
LINE
  5
18E
330
A3
100
AcDbEntity
  8
0
  6
Continuous
 62
     0
370
     0
100
AcDbLine
 10
105.453938
 20
57.141601
 30
0.0
 11
105.714338
 21
57.141601
 31
0.0
  0
LINE
  5
18F
330
A3
100
AcDbEntity
  8
0
  6
Continuous
 62
     0
370
     0
100
AcDbLine
 10
108.54882
 20
56.749458
 30
0.0
 11
105.627539
 21
53.759255
 31
0.0
  0
LINE
  5
190
330
A3
100
AcDbEntity
  8
0
  6
Continuous
 62
     0
370
     0
100
AcDbLine
 10
104.709938
 20
53.458801
 30
0.0
 11
107.62872
 21
56.446445
 31
0.0
  0
LINE
  5
191
330
A3
100
AcDbEntity
  8
0
  6
Continuous
 62
     0
370
     0
100
AcDbLine
 10
104.709938
 20
56.397601
 30
0.0
 11
104.709938
 21
53.458801
 31
0.0
  0
ARC
  5
192
330
A3
100
AcDbEntity
  8
0
  6
Continuous
 62
     0
370
     0
100
AcDbCircle
 10
105.453938
 20
56.397601
 30
0.0
 40
0.7439999999970172
100
AcDbArc
 50
90.0
 51
180.0
  0
LINE
  5
193
330
A3
100
AcDbEntity
  8
0
  6
Continuous
 62
     0
370
     0
100
AcDbLine
 10
105.714338
 20
57.476401
 30
0.0
 11
102.589538
 21
57.476401
 31
0.0
  0
ARC
  5
194
330
A3
100
AcDbEntity
  8
0
  6
Continuous
 62
     0
370
     0
100
AcDbCircle
 10
102.849938
 20
56.397601
 30
0.0
 40
0.7439999999970247
100
AcDbArc
 50
0.0
 51
90.0
  0
LINE
  5
195
330
A3
100
AcDbEntity
  8
0
  6
Continuous
 62
     0
370
     0
100
AcDbLine
 10
105.714338
 20
49.329601
 30
0.0
 11
105.714338
 21
48.994801
 31
0.0
  0
LINE
  5
196
330
A3
100
AcDbEntity
  8
0
  6
Continuous
 62
     0
370
     0
100
AcDbLine
 10
105.453938
 20
49.329601
 30
0.0
 11
105.714338
 21
49.329601
 31
0.0
  0
ARC
  5
197
330
A3
100
AcDbEntity
  8
0
  6
Continuous
 62
     0
370
     0
100
AcDbCircle
 10
105.453938
 20
50.073601
 30
0.0
 40
0.7439999999970223
100
AcDbArc
 50
180.0
 51
270.0
  0
ARC
  5
198
330
A3
100
AcDbEntity
  8
0
  6
Continuous
 62
     0
370
     0
100
AcDbCircle
 10
102.849938
 20
50.073601
 30
0.0
 40
0.7439999999970189
100
AcDbArc
 50
270.0
 51
0.0
  0
LINE
  5
199
330
A3
100
AcDbEntity
  8
0
  6
Continuous
 62
     0
370
     0
100
AcDbLine
 10
105.714338
 20
48.994801
 30
0.0
 11
102.589538
 21
48.994801
 31
0.0
  0
LINE
  5
19A
330
A3
100
AcDbEntity
  8
0
  6
Continuous
 62
     0
370
     0
100
AcDbLine
 10
102.589538
 20
48.994801
 30
0.0
 11
102.589538
 21
49.354801
 31
0.0
  0
LINE
  5
19B
330
A3
100
AcDbEntity
  8
0
  6
Continuous
 62
     0
370
     0
100
AcDbLine
 10
102.589538
 20
49.354801
 30
0.0
 11
102.869538
 21
49.354801
 31
0.0
  0
LINE
  5
19C
330
A3
100
AcDbEntity
  8
0
  6
Continuous
 62
     0
370
     0
100
AcDbLine
 10
105.627539
 20
53.759255
 30
0.0
 11
109.388978
 21
49.678448
 31
0.0
  0
LINE
  5
19D
330
A3
100
AcDbEntity
  8
0
  6
Continuous
 62
     0
370
     0
100
AcDbLine
 10
103.593938
 20
56.397601
 30
0.0
 11
103.593938
 21
50.073601
 31
0.0
  0
LINE
  5
19E
330
A3
100
AcDbEntity
  8
0
  6
Continuous
 62
     0
370
     0
100
AcDbLine
 10
107.313938
 20
57.141601
 30
0.0
 11
107.336019
 21
57.141601
 31
0.0
  0
LINE
  5
19F
330
A3
100
AcDbEntity
  8
0
  6
Continuous
 62
     0
370
     0
100
AcDbLine
 10
107.313938
 20
57.476401
 30
0.0
 11
107.313938
 21
57.141601
 31
0.0
  0
LINE
  5
1A0
330
A3
100
AcDbEntity
  8
0
  6
Continuous
 62
     0
370
     0
100
AcDbLine
 10
109.480144
 20
57.141601
 30
0.0
 11
109.545938
 21
57.141601
 31
0.0
  0
LINE
  5
1A1
330
A3
100
AcDbEntity
  8
0
  6
Continuous
 62
     0
370
     0
100
AcDbLine
 10
109.545938
 20
57.476401
 30
0.0
 11
109.545938
 21
57.141601
 31
0.0
  0
LINE
  5
1A2
330
A3
100
AcDbEntity
  8
0
  6
Continuous
 62
     0
370
     0
100
AcDbLine
 10
107.313938
 20
57.476401
 30
0.0
 11
109.545938
 21
57.476401
 31
0.0
  0
LINE
  5
1A3
330
A3
100
AcDbEntity
  8
0
  6
Continuous
 62
     0
370
     0
100
AcDbLine
 10
104.709938
 20
53.272801
 30
0.0
 11
104.709938
 21
50.073601
 31
0.0
  0
LINE
  5
1A4
330
A3
100
AcDbEntity
  8
0
  6
Continuous
 62
     0
370
     0
100
AcDbLine
 10
104.709938
 20
53.272801
 30
0.0
 11
108.653138
 21
48.994801
 31
0.0
  0
ELLIPSE
  5
1A5
330
A3
100
AcDbEntity
  8
0
  6
Continuous
 62
     0
370
     0
100
AcDbEllipse
 10
114.902738
 20
53.235601
 30
0.0
 11
1.066030545717525E-15
 21
4.352399999982596
 31
0.0
210
0.0
220
0.0
230
1.0
 40
0.632479
 41
0.0
 42
6.283185307179586
  0
ELLIPSE
  5
1A6
330
A3
100
AcDbEntity
  8
0
  6
Continuous
 62
     0
370
     0
100
AcDbEllipse
 10
114.902738
 20
53.235601
 30
0.0
 11
-6.585521429533937E-15
 21
4.575599999981701
 31
0.0
210
0.0
220
0.0
230
1.0
 40
0.878049
 41
0.0
 42
6.283185307179586
  0
ARC
  5
1A7
330
A3
100
AcDbEntity
  8
0
  6
Continuous
 62
     0
370
     0
100
AcDbCircle
 10
107.336019
 20
56.732401
 30
0.0
 40
0.4091999999984142
100
AcDbArc
 50
315.667976
 51
90.0
  0
ARC
  5
1A8
330
A3
100
AcDbEntity
  8
0
  6
Continuous
 62
     0
370
     0
100
AcDbCircle
 10
109.480144
 20
55.839601
 30
0.0
 40
1.301999999994613
100
AcDbArc
 50
90.0
 51
135.667976
  0
HATCH
  5
1A9
330
A3
100
AcDbEntity
  8
0
  6
Continuous
 62
     0
370
     0
100
AcDbHatch
 10
0.0
 20
0.0
 30
0.0
210
0.0
220
0.0
230
1.0
  2
SOLID
 70
     1
 71
     0
 91
        4
 92
        1
 93
       31
 72
     1
 10
105.7143377108591
 20
57.14159993265637
 11
105.7143377108591
 21
57.47639993265497
 72
     1
 10
105.7143377108591
 20
57.47639993265497
 11
102.5895377108717
 21
57.47639993265497
 72
     1
 10
102.5895377108717
 20
57.47639993265497
 11
102.5895377108717
 21
57.14159993265637
 72
     1
 10
102.5895377108717
 20
57.14159993265637
 11
102.8499377108703
 21
57.14159993265637
 72
     2
 10
102.8499377108703
 20
56.39759993265929
 40
0.7439999999970297
 50
270.0
 51
359.9999999999994
 73
     0
 72
     1
 10
103.5939377108674
 20
56.3975999326593
 11
103.5939377108674
 21
50.07359993268481
 72
     2
 10
102.8499377108703
 20
50.07359993268479
 40
0.7439999999970013
 50
359.9999999999989
 51
450.000000000001
 73
     0
 72
     1
 10
102.8499377108703
 20
49.32959993268779
 11
102.5895377108716
 21
49.32959993268779
 72
     1
 10
102.5895377108716
 20
49.32959993268779
 11
102.5895377108716
 21
48.99479993268889
 72
     1
 10
102.5895377108716
 20
48.99479993268889
 11
105.7143377108591
 21
48.99479993268879
 72
     1
 10
105.7143377108591
 20
48.99479993268879
 11
105.7143377108591
 21
49.32959993268742
 72
     1
 10
105.7143377108591
 20
49.32959993268742
 11
105.4539377108599
 21
49.32959993268742
 72
     2
 10
105.4539377108599
 20
50.07359993268446
 40
0.7439999999970084
 50
89.99999999999888
 51
180.0000000000011
 73
     0
 72
     1
 10
104.709937710863
 20
50.07359993268447
 11
104.709937710863
 21
53.27279993267176
 72
     1
 10
104.709937710863
 20
53.27279993267176
 11
108.6531377108474
 21
48.9947999326887
 72
     1
 10
108.6531377108473
 20
48.99479993268869
 11
110.3643377108405
 21
48.99479993268859
 72
     1
 10
110.3643377108405
 20
48.99479993268859
 11
110.3643377108405
 21
49.32959993268724
 72
     2
 10
110.2095653449409
 20
50.43481552918593
 40
1.115999999995574
 50
82.02824486541343
 51
137.3320236816215
 73
     0
 72
     1
 10
109.3889777805863
 20
49.67844786117212
 11
105.6275387596266
 21
53.75925434617547
 72
     1
 10
105.6275387596266
 20
53.75925434617547
 11
108.5488202334826
 21
56.74945731050837
 72
     2
 10
109.4801437819683
 20
55.83959993266176
 40
1.30199999999462
 50
224.3320236816227
 51
270.0
 73
     0
 72
     1
 10
109.4801437819683
 20
57.14159993265637
 11
109.5459377108438
 21
57.14159993265637
 72
     1
 10
109.5459377108438
 20
57.14159993265636
 11
109.5459377108438
 21
57.47639993265497
 72
     1
 10
109.5459377108438
 20
57.47639993265497
 11
107.3139377108528
 21
57.47639993265497
 72
     1
 10
107.3139377108528
 20
57.47639993265497
 11
107.3139377108528
 21
57.14159993265636
 72
     1
 10
107.3139377108528
 20
57.14159993265637
 11
107.3360183206443
 21
57.14159993265637
 72
     2
 10
107.3360183206443
 20
56.73239993265796
 40
0.4091999999984139
 50
270.0
 51
404.3320236816233
 73
     0
 72
     1
 10
107.6287200073112
 20
56.44644475676326
 11
104.709937710863
 21
53.45879993267107
 72
     1
 10
104.709937710863
 20
53.45879993267108
 11
104.709937710863
 21
56.39759993265929
 72
     2
 10
105.4539377108599
 20
56.3975999326593
 40
0.7439999999970013
 50
179.9999999999995
 51
270.0000000000011
 73
     0
 72
     1
 10
105.4539377108599
 20
57.14159993265637
 11
105.7143377108591
 21
57.14159993265637
 97
        0
 92
        1
 93
        1
 72
     3
 10
114.9027377108225
 20
53.23559993267198
 11
-6.585521429533937E-15
 21
4.575599999981701
 40
0.8780487804878055
 50
0.0
 51
360.0
 73
     1
 97
        0
 92
        0
 93
        1
 72
     3
 10
114.9027377108225
 20
53.23559993267198
 11
1.066030545717525E-15
 21
4.352399999982596
 40
0.6324786324786323
 50
0.0
 51
360.0
 73
     1
 97
        0
 92
        1
 93
        6
 72
     1
 10
119.8557557937995
 20
50.85479993268149
 11
120.051249671393
 21
48.99479993268901
 72
     4
 94
        4
 73
     0
 74
     0
 95
       29
 96
       24
 40
0.0
 40
0.0
 40
0.0
 40
0.0
 40
0.0
 40
0.1253308017340462
 40
0.1781222045867913
 40
0.2253469990864664
 40
0.2672853534429553
 40
0.3059861399847346
 40
0.3436514623257416
 40
0.3822355103144279
 40
0.4232664476201407
 40
0.4673449108384951
 40
0.514133307124502
 40
0.5618369190281172
 40
0.6077881704024153
 40
0.6507223115083888
 40
0.6907580968205591
 40
0.7298786665151213
 40
0.7716097568821252
 40
0.8170749194233642
 40
0.8643052668426973
 40
0.9105001500612585
 40
1.0
 40
1.0
 40
1.0
 40
1.0
 40
1.0
 10
120.0512496713931
 20
48.99479993268902
 10
120.2920956792985
 20
48.8561343975039
 10
121.5393799296625
 20
48.73499099804019
 10
123.1404804028571
 20
48.42193371821097
 10
124.3368189596637
 20
49.30765229555747
 10
124.8599320963982
 20
49.87380774369521
 10
125.1753558523644
 20
50.47975338803346
 10
125.2177052272281
 20
51.07571940940277
 10
125.2122966798929
 20
51.66944472420904
 10
124.9628109265221
 20
52.26874914102049
 10
124.4308024161626
 20
52.81754638828571
 10
123.727694958734
 20
53.34474338347957
 10
122.9401044345066
 20
53.86352009915657
 10
122.1722998103984
 20
54.38432628892968
 10
121.449787932811
 20
54.89184162928645
 10
121.0722536793669
 20
55.48506942544614
 10
120.9909450289333
 20
56.11993777414007
 10
121.1599465167039
 20
56.73365899490835
 10
121.6741111495822
 20
57.37303920921448
 10
122.7029117536954
 20
57.56668004380033
 10
123.9960096561839
 20
57.27761443149588
 10
124.5547396147705
 20
56.58217963881221
 10
124.5522305745786
 20
55.96902595602522
 10
124.6962675067386
 20
55.85819993266181
 72
     1
 10
124.6962675067386
 20
55.85819993266155
 11
125.1129075067366
 21
55.85819993266155
 72
     1
 10
125.1129075067367
 20
55.85819993266155
 11
124.9467377107823
 21
57.43919993265543
 72
     4
 94
        4
 73
     0
 74
     0
 95
       28
 96
       23
 40
0.0
 40
0.0
 40
0.0
 40
0.0
 40
0.0
 40
0.127405170737824
 40
0.1790570703830522
 40
0.229234996645392
 40
0.2728250333062168
 40
0.3170194183616904
 40
0.3614015074276771
 40
0.4047305834733712
 40
0.4510905280114826
 40
0.4995783838396157
 40
0.5476939455233316
 40
0.593213881287513
 40
0.6356103427425196
 40
0.6757464599250582
 40
0.716067167241501
 40
0.7592937278673799
 40
0.8077487463717914
 40
0.8571505148781823
 40
0.905140876636556
 40
1.0
 40
1.0
 40
1.0
 40
1.0
 40
1.0
 10
124.9467377107824
 20
57.43919993265544
 10
124.4331555205268
 20
57.46686491826171
 10
124.0497068812315
 20
58.07402668597638
 10
121.3770471501522
 20
57.74434606678937
 10
120.9142494644202
 20
57.29278287339753
 10
120.1382409786056
 20
56.82532294829685
 10
119.879207854411
 20
55.54626637436059
 10
120.0435566942833
 20
55.07052999040604
 10
120.3360552302102
 20
54.36370695738925
 10
121.0236143929494
 20
53.87453610356872
 10
121.7518253638866
 20
53.27693239571978
 10
122.5386288476907
 20
52.78378736848347
 10
123.2802338287547
 20
52.25676369884079
 10
123.8327042812525
 20
51.71073744682649
 10
124.1492238841075
 20
51.11227390882635
 10
124.1450442379005
 20
50.48243228358244
 10
123.8311454650453
 20
49.85938726869682
 10
123.2134327948079
 20
49.34873746504682
 10
122.3985667098787
 20
48.68773628638684
 10
120.6736509085268
 20
49.47681735468623
 10
120.5337681805563
 20
50.01301031086208
 10
120.2731247281776
 20
50.66708008949472
 10
120.3021557937979
 20
50.85479993268153
 72
     1
 10
120.3021557937979
 20
50.85479993268149
 11
119.8557557937995
 21
50.85479993268149
 97
        0
 75
     0
 76
     1
 98
        0
  0
ENDBLK
  5
1AB
330
A3
100
AcDbEntity
  8
0
100
AcDbBlockEnd
  0
BLOCK
  5
1FC
330
1B0
100
AcDbEntity
  8
0
100
AcDbBlockBegin
  2
a
 70
     0
 10
94.583221
 20
62.05365
 30
0.0
  3
a
  1

  0
DIMENSION
  5
1B2
330
1B0
100
AcDbEntity
  8
0
  6
Continuous
 62
     0
370
     0
100
AcDbDimension
  2
*D5
 10
125.659241
 20
276.727783
 30
0.0
 11
113.122738
 21
276.727783
 31
0.0
 70
   160
  1
\fArial|b0|i0|c0|p0;<>
 71
     5
 42
4.000003
  3
zucchetti
100
AcDbAlignedDimension
 13
121.659238
 23
267.224487
 33
0.0
 14
125.659241
 24
239.724487
 34
0.0
100
AcDbRotatedDimension
1001
ACAD
1000
DSTYLE
1002
{
1070
   279
1070
     0
1070
   176
1070
     0
1070
   177
1070
     0
1070
   178
1070
     0
1070
     3
1000

1002
}
  0
LINE
  5
1C2
330
1B0
100
AcDbEntity
  8
0
  6
Continuous
 62
     0
370
    30
100
AcDbLine
 10
121.659238
 20
267.224487
 30
0.0
 11
121.659238
 21
212.224487
 31
0.0
  0
LINE
  5
1C3
330
1B0
100
AcDbEntity
  8
0
  6
Continuous
 62
     0
370
    30
100
AcDbLine
 10
125.659238
 20
267.224487
 30
0.0
 11
125.659238
 21
212.224487
 31
0.0
  0
SPLINE
  5
1C4
330
1B0
100
AcDbEntity
  8
0
  6
Continuous
 62
     0
370
     0
100
AcDbSpline
210
0.0
220
0.0
230
1.0
 70
     8
 71
     3
 72
    10
 73
     6
 74
     0
 42
0.000000001
 43
0.0
 40
0.0
 40
0.0
 40
0.0
 40
0.0
 40
0.1412189399276094
 40
0.2824377535492203
 40
0.4104518892335512
 40
0.4104518892335512
 40
0.4104518892335512
 40
0.4104518892335512
 10
172.4093116329412
 20
251.8768816640828
 30
0.0
 10
172.3743763365359
 20
251.8953774852661
 30
0.0
 10
172.3041052900466
 20
251.9216660529944
 30
0.0
 10
172.2104262824553
 20
251.9249415891537
 30
0.0
 10
172.1586855012054
 20
251.90521487653
 30
0.0
 10
172.1370905103784
 20
251.8912079369903
 30
0.0
  0
LINE
  5
1C5
330
1B0
100
AcDbEntity
  8
0
  6
Continuous
 62
     0
370
     0
100
AcDbLine
 10
172.409312
 20
251.876882
 30
0.0
 11
172.40931
 21
251.971479
 31
0.0
  0
SPLINE
  5
1C6
330
1B0
100
AcDbEntity
  8
0
  6
Continuous
 62
     0
370
     0
100
AcDbSpline
210
0.0
220
0.0
230
1.0
 70
     8
 71
     3
 72
    24
 73
    20
 74
     0
 42
0.000000001
 43
0.0
 40
0.2301514753029926
 40
0.2301514753029926
 40
0.2301514753029926
 40
0.2301514753029926
 40
2.562539680461692
 40
3.215067257681589
 40
4.932714103693597
 40
6.077002434848835
 40
7.128932648362403
 40
8.332138285790618
 40
9.313143807497898
 40
10.23026482763325
 40
11.85423911779084
 40
13.73869790018687
 40
15.45909067200007
 40
17.76443342875325
 40
19.59499314055368
 40
21.25836018239191
 40
24.41855147721648
 40
26.95305950612924
 40
28.67044545662192
 40
28.67044545662192
 40
28.67044545662192
 40
28.67044545662192
 10
172.4093116329412
 20
251.8768816640829
 30
0.0
 10
171.8881719265792
 20
251.5269682670441
 30
0.0
 10
171.1701997806283
 20
251.069975765622
 30
0.0
 10
169.9416917255131
 20
250.3812148871504
 30
0.0
 10
168.9650861176634
 20
249.8951715099897
 30
0.0
 10
167.7984049481711
 20
249.4371482683753
 30
0.0
 10
166.7347711904503
 20
249.1206287102008
 30
0.0
 10
165.6802768373128
 20
248.9239045819308
 30
0.0
 10
164.6475717615189
 20
248.8550592508432
 30
0.0
 10
163.4725015592721
 20
248.9022892157394
 30
0.0
 10
162.0251971524711
 20
249.1667704876405
 30
0.0
 10
160.4268921218345
 20
249.7335161575407
 30
0.0
 10
158.7718881565621
 20
250.5410407157788
 30
0.0
 10
157.2965815226503
 20
251.4286746028559
 30
0.0
 10
156.005766583024
 20
252.3036017314868
 30
0.0
 10
154.7052793345913
 20
253.2475483700349
 30
0.0
 10
153.5782421446794
 20
254.1247710662628
 30
0.0
 10
152.9423966941648
 20
254.6371263092994
 30
0.0
 10
152.8349586518515
 20
254.724384263073
 30
0.0
 10
152.8348868374407
 20
254.7244633165327
 30
0.0
  0
ELLIPSE
  5
1C7
330
1B0
100
AcDbEntity
  8
0
  6
Continuous
 62
     0
370
     0
100
AcDbEllipse
 10
175.959238
 20
251.471827
 30
0.0
 11
0.5
 21
0.0
 31
0.0
210
0.0
220
0.0
230
1.0
 40
0.810161
 41
0.0
 42
1.570796326794897
  0
LINE
  5
1C8
330
1B0
100
AcDbEntity
  8
0
  6
Continuous
 62
     0
370
     0
100
AcDbLine
 10
175.959238
 20
251.971827
 30
0.0
 11
175.959238
 21
251.876908
 31
0.0
  0
LINE
  5
1C9
330
1B0
100
AcDbEntity
  8
0
  6
Continuous
 62
     0
370
     0
100
AcDbLine
 10
172.409312
 20
251.876908
 30
0.0
 11
175.959238
 21
251.876908
 31
0.0
  0
SPLINE
  5
1CA
330
1B0
100
AcDbEntity
  8
0
  6
Continuous
 62
     0
370
     0
100
AcDbSpline
210
0.0
220
0.0
230
1.0
 70
     8
 71
     3
 72
    10
 73
     6
 74
     0
 42
0.000000001
 43
0.0
 40
0.0
 40
0.0
 40
0.0
 40
0.0
 40
0.148270830368116
 40
0.2965415445704755
 40
0.3973460053998614
 40
0.3973460053998614
 40
0.3973460053998614
 40
0.3973460053998614
 10
171.1440452887782
 20
227.5720866371019
 30
0.0
 10
171.1091996622998
 20
227.5515400097427
 30
0.0
 10
171.0390706164799
 20
227.5222349608673
 30
0.0
 10
170.953669751114
 20
227.5188824685812
 30
0.0
 10
170.9083933676534
 20
227.5357239518847
 30
0.0
 10
170.8917872278077
 20
227.5454775838026
 30
0.0
  0
SPLINE
  5
1CB
330
1B0
100
AcDbEntity
  8
0
  6
Continuous
 62
     0
370
     0
100
AcDbSpline
210
0.0
220
0.0
230
1.0
 70
     8
 71
     3
 72
    22
 73
    18
 74
     0
 42
0.000000001
 43
0.0
 40
25.4577920858875
 40
25.4577920858875
 40
25.4577920858875
 40
25.4577920858875
 40
25.76254972946964
 40
27.62473017254639
 40
29.47718040498189
 40
31.63744201126872
 40
34.48678621702562
 40
35.89972635979734
 40
38.18007153412038
 40
40.03874031853034
 40
42.02823665158273
 40
42.96260883512779
 40
43.85056060049207
 40
45.26856786178696
 40
47.14230037739671
 40
48.71624691819468
 40
50.72343407094572
 40
50.72343407094572
 40
50.72343407094572
 40
50.72343407094572
 10
153.8475967438599
 20
224.7245188049621
 30
0.0
 10
153.8475820163188
 20
224.7245028716016
 30
0.0
 10
153.8575357301987
 20
224.7322580975599
 30
0.0
 10
154.0093662836573
 20
224.8511945843208
 30
0.0
 10
154.5450989968686
 20
225.2646188363278
 30
0.0
 10
155.5171167951236
 20
225.9915982154327
 30
0.0
 10
156.7582712630635
 20
226.8618706854064
 30
0.0
 10
158.2562025468689
 20
227.797463479575
 30
0.0
 10
159.6920129749631
 20
228.5814892216712
 30
0.0
 10
161.4772560113481
 20
229.3143731177067
 30
0.0
 10
163.0100108651598
 20
229.6835024493241
 30
0.0
 10
164.2772823115359
 20
229.78293375923
 30
0.0
 10
165.3591391672201
 20
229.7571146055519
 30
0.0
 10
166.732248488578
 20
229.5461804718253
 30
0.0
 10
168.2315834585172
 20
229.0644590125655
 30
0.0
 10
169.7642771418731
 20
228.3675638486479
 30
0.0
 10
170.6693201229848
 20
227.8580497297111
 30
0.0
 10
171.1440452887782
 20
227.572086637102
 30
0.0
  0
LINE
  5
1CC
330
1B0
100
AcDbEntity
  8
0
  6
Continuous
 62
     0
370
     0
100
AcDbLine
 10
171.144045
 20
227.572087
 30
0.0
 11
171.144042
 21
227.477154
 31
0.0
  0
ELLIPSE
  5
1CD
330
1B0
100
AcDbEntity
  8
0
  6
Continuous
 62
     0
370
     0
100
AcDbEllipse
 10
175.959238
 20
227.977147
 30
0.0
 11
0.5
 21
0.0
 31
0.0
210
0.0
220
0.0
230
-1.0
 40
0.810161
 41
0.0
 42
1.570796326794897
  0
LINE
  5
1CE
330
1B0
100
AcDbEntity
  8
0
  6
Continuous
 62
     0
370
    30
100
AcDbLine
 10
176.459238
 20
251.471827
 30
0.0
 11
176.459238
 21
227.977147
 31
0.0
  0
LINE
  5
1CF
330
1B0
100
AcDbEntity
  8
0
  6
Continuous
 62
     0
370
     0
100
AcDbLine
 10
175.959238
 20
251.876908
 30
0.0
 11
175.959238
 21
227.572066
 31
0.0
  0
LINE
  5
1D0
330
1B0
100
AcDbEntity
  8
0
  6
Continuous
 62
     0
370
     0
100
AcDbLine
 10
175.959238
 20
227.477147
 30
0.0
 11
175.959238
 21
227.572066
 31
0.0
  0
LINE
  5
1D1
330
1B0
100
AcDbEntity
  8
0
  6
Continuous
 62
     0
370
     0
100
AcDbLine
 10
175.959238
 20
227.572066
 30
0.0
 11
171.144045
 21
227.572066
 31
0.0
  0
ARC
  5
1D2
330
1B0
100
AcDbEntity
  8
0
  6
Continuous
 62
     0
370
    30
100
AcDbCircle
 10
175.958838
 20
227.977547
 30
0.0
 40
0.5003996799291879
100
AcDbArc
 50
270.045745
 51
359.954255
  0
ARC
  5
1D3
330
1B0
100
AcDbEntity
  8
0
  6
Continuous
 62
     0
370
    30
100
AcDbCircle
 10
171.144092
 20
227.977173
 30
0.0
 40
0.5000195148075153
100
AcDbArc
 50
239.76737
 51
269.994246
  0
ARC
  5
1D4
330
1B0
100
AcDbEntity
  8
0
  6
Continuous
 62
     0
370
    30
100
AcDbCircle
 10
175.958838
 20
251.471428
 30
0.0
 40
0.5003996799287451
100
AcDbArc
 50
0.045745
 51
89.954255
  0
ARC
  5
1D5
330
1B0
100
AcDbEntity
  8
0
  6
Continuous
 62
     0
370
    30
100
AcDbCircle
 10
172.409362
 20
251.471716
 30
0.0
 40
0.5001048915497159
100
AcDbArc
 50
90.005983
 51
122.986933
  0
LINE
  5
1D6
330
1B0
100
AcDbEntity
  8
0
  6
Continuous
 62
     0
370
    30
100
AcDbLine
 10
125.659238
 20
254.724487
 30
0.0
 11
152.834887
 21
254.724487
 31
0.0
  0
LINE
  5
1D7
330
1B0
100
AcDbEntity
  8
0
  6
Continuous
 62
     0
370
    30
100
AcDbLine
 10
125.659238
 20
224.724487
 30
0.0
 11
153.847597
 21
224.724487
 31
0.0
  0
SPLINE
  5
1D8
330
1B0
100
AcDbEntity
  8
0
  6
Continuous
 62
     0
370
    30
100
AcDbSpline
210
0.0
220
0.0
230
1.0
 70
     8
 71
     3
 72
    31
 73
    27
 74
     0
 42
0.000000001
 43
0.0
 40
0.0
 40
0.0
 40
0.0
 40
0.0
 40
1.062831969543076
 40
2.966764213809036
 40
4.853413932339414
 40
6.09777358839631
 40
7.332348072320576
 40
8.355296970893995
 40
9.579540775919284
 40
11.03319123872759
 40
12.24572263871783
 40
13.68857763900079
 40
15.33508694317161
 40
17.60543217508904
 40
19.62707923871444
 40
20.96837017894421
 40
22.58036422662233
 40
23.70986674524972
 40
25.29378612154375
 40
25.97268383217456
 40
26.38089818756
 40
26.92667685269296
 40
27.29058215436776
 40
27.47253638785253
 40
27.65448400478459
 40
27.81976344102095
 40
27.81976344102095
 40
27.81976344102095
 40
27.81976344102095
 10
172.137105475425
 20
251.8912198657767
 30
0.0
 10
171.9008740417896
 20
251.7379185994132
 30
0.0
 10
171.2179206920381
 20
251.3059726347512
 30
0.0
 10
169.9978504381834
 20
250.602494751226
 30
0.0
 10
168.5959421124795
 20
249.9362377750713
 30
0.0
 10
167.2799145992191
 20
249.4671972886929
 30
0.0
 10
166.1639743330251
 20
249.1963267903387
 30
0.0
 10
165.0144812295815
 20
249.0558845398036
 30
0.0
 10
163.7756534516364
 20
249.0639529831813
 30
0.0
 10
162.4994829744444
 20
249.2690750463973
 30
0.0
 10
161.2194866710183
 20
249.6453896487019
 30
0.0
 10
159.961967750615
 20
250.1571645425694
 30
0.0
 10
158.5160724423538
 20
250.8936664492595
 30
0.0
 10
157.0791661034476
 20
251.7670450723279
 30
0.0
 10
155.89168680238
 20
252.5708492403665
 30
0.0
 10
154.9811677487487
 20
253.222054558977
 30
0.0
 10
154.3451165673628
 20
253.6938483287761
 30
0.0
 10
153.7984395252235
 20
254.1090900914738
 30
0.0
 10
153.4797253091358
 20
254.3553695702162
 30
0.0
 10
153.3094248200218
 20
254.4880855725258
 30
0.0
 10
153.2298652575995
 20
254.5502220860439
 30
0.0
 10
153.183869003047
 20
254.5861951311987
 30
0.0
 10
153.1596771018864
 20
254.6051529988416
 30
0.0
 10
153.1502883526664
 20
254.6125118471723
 30
0.0
 10
153.1439795192416
 20
254.6174843985598
 30
0.0
 10
153.1476541212091
 20
254.6145626057321
 30
0.0
 10
153.1476534089774
 20
254.6145617003144
 30
0.0
  0
ARC
  5
1D9
330
1B0
100
AcDbEntity
  8
0
  6
Continuous
 62
     0
370
    30
100
AcDbCircle
 10
152.834842
 20
254.224256
 30
0.0
 40
0.5002070819996849
100
AcDbArc
 50
51.289449
 51
89.994858
  0
LINE
  5
1DA
330
1B0
100
AcDbEntity
  8
0
  6
Continuous
 62
     0
370
    30
100
AcDbLine
 10
172.409314
 20
251.971827
 30
0.0
 11
175.959238
 21
251.971827
 31
0.0
  0
SPLINE
  5
1DB
330
1B0
100
AcDbEntity
  8
0
  6
Continuous
 62
     0
370
    30
100
AcDbSpline
210
0.0
220
0.0
230
1.0
 70
     8
 71
     3
 72
    35
 73
    31
 74
     0
 42
0.000000001
 43
0.0
 40
24.67890543631088
 40
24.67890543631088
 40
24.67890543631088
 40
24.67890543631088
 40
24.70316050654959
 40
25.04771396348209
 40
25.22002344525609
 40
25.39232911017835
 40
25.56463509789011
 40
25.9092496822281
 40
26.42615273466119
 40
27.26058309864186
 40
28.26144785775696
 40
29.82459858497738
 40
31.10019534535576
 40
33.93593427071917
 40
35.66958658609167
 40
37.11847659524828
 40
38.31661043149957
 40
39.65140218829463
 40
40.41451184914166
 40
41.55016090975242
 40
42.80928890406805
 40
44.07457010244426
 40
45.39204577990962
 40
46.46515162555855
 40
47.18009872378909
 40
48.07766483922961
 40
48.6181713469122
 40
49.16016743819031
 40
49.34114895387808
 40
49.44939590897677
 40
49.44939590897677
 40
49.44939590897677
 40
49.44939590897677
 10
154.1548867740036
 20
224.8300915362143
 30
0.0
 10
154.1548867291945
 20
224.8300915941058
 30
0.0
 10
154.1547183540267
 20
224.8299622287777
 30
0.0
 10
154.1497974381165
 20
224.8261510298282
 30
0.0
 10
154.1601825842108
 20
224.8340212523061
 30
0.0
 10
154.1689143684132
 20
224.8406204904101
 30
0.0
 10
154.1846069658899
 20
224.852480633931
 30
0.0
 10
154.215940646762
 20
224.8761330012034
 30
0.0
 10
154.2890421130074
 20
224.931168984628
 30
0.0
 10
154.4370662246122
 20
225.0422201303577
 30
0.0
 10
154.7374239672843
 20
225.2656415973201
 30
0.0
 10
155.20475061865
 20
225.6076516328474
 30
0.0
 10
156.07909926958
 20
226.2279319160635
 30
0.0
 10
157.2222989792295
 20
226.9965162408626
 30
0.0
 10
158.6285297791953
 20
227.8280740294542
 30
0.0
 10
159.7648807405388
 20
228.4123066075042
 30
0.0
 10
160.8834488164267
 20
228.8954190173095
 30
0.0
 10
161.8778487183295
 20
229.2281704100797
 30
0.0
 10
162.9035368416623
 20
229.4688224261578
 30
0.0
 10
163.9418238939996
 20
229.610493004684
 30
0.0
 10
165.1680170257182
 20
229.6093513329546
 30
0.0
 10
166.4292972504272
 20
229.4251849442031
 30
0.0
 10
167.5678991752891
 20
229.1078939786745
 30
0.0
 10
168.4758078811136
 20
228.7631334222944
 30
0.0
 10
169.221538095224
 20
228.4328750027647
 30
0.0
 10
169.7913188160522
 20
228.1516233591435
 30
0.0
 10
170.2920513341558
 20
227.8853908911898
 30
0.0
 10
170.6008970967073
 20
227.7131930121735
 30
0.0
 10
170.7984344382992
 20
227.5995192420878
 30
0.0
 10
170.8672620798505
 20
227.5599346266215
 30
0.0
 10
170.892373184402
 20
227.5451215404102
 30
0.0
  0
SPLINE
  5
1DC
330
1B0
100
AcDbEntity
  8
0
  6
Continuous
 62
     0
370
    30
100
AcDbSpline
210
0.0
220
0.0
230
1.0
 70
     8
 71
     3
 72
    17
 73
    13
 74
     0
 42
0.000000001
 43
0.0
 40
0.4775184418805402
 40
0.4775184418805402
 40
0.4775184418805402
 40
0.4775184418805402
 40
0.507172152353111
 40
0.5251760256568129
 40
0.5395909050670796
 40
0.546037981314002
 40
0.5583933883722552
 40
0.570748977707141
 40
0.6171446431570943
 40
0.6635213258456006
 40
0.7126665682228015
 40
0.8399935255523069
 40
0.8399935255523069
 40
0.8399935255523069
 40
0.8399935255523069
 10
154.1544815718125
 20
224.8297307331507
 30
0.0
 10
154.1498793186668
 20
224.8261425987736
 30
0.0
 10
154.145159371595
 20
224.8227357430701
 30
0.0
 10
154.1424088073209
 20
224.820625795222
 30
0.0
 10
154.1320069673693
 20
224.8132415310951
 30
0.0
 10
154.1233762826174
 20
224.8074187139262
 30
0.0
 10
154.114528214076
 20
224.8016709687754
 30
0.0
 10
154.0945445968901
 20
224.789399686008
 30
0.0
 10
154.063482453828
 20
224.7727232725129
 30
0.0
 10
154.019888171647
 20
224.7543342812076
 30
0.0
 10
153.9488958367186
 20
224.7320512553035
 30
0.0
 10
153.8899374387674
 20
224.7245186212043
 30
0.0
 10
153.8475966429334
 20
224.7245186330062
 30
0.0
  0
LINE
  5
1DD
330
1B0
100
AcDbEntity
  8
0
  6
Continuous
 62
     0
370
    30
100
AcDbLine
 10
175.959238
 20
227.477147
 30
0.0
 11
171.14405
 21
227.477147
 31
0.0
  0
LINE
  5
1DE
330
1B0
100
AcDbEntity
  8
0
  6
Continuous
 62
     0
370
    30
100
AcDbLine
 10
121.659238
 20
267.224487
 30
0.0
 11
125.659238
 21
267.224487
 31
0.0
  0
LINE
  5
1DF
330
1B0
100
AcDbEntity
  8
0
  6
Continuous
 62
     0
370
    30
100
AcDbLine
 10
121.659238
 20
212.224487
 30
0.0
 11
125.659238
 21
212.224487
 31
0.0
  0
DIMENSION
  5
1E0
330
1B0
100
AcDbEntity
  8
0
  6
Continuous
 62
     0
370
     0
100
AcDbDimension
  2
*D6
 10
176.459238
 20
276.727783
 30
0.0
 11
151.059235
 21
276.727783
 31
0.0
 70
   160
  1
\fArial|b0|i0|c0|p0;<>
 71
     5
 42
50.8
  3
zucchetti
100
AcDbAlignedDimension
 13
125.659238
 23
267.224487
 33
0.0
 14
176.459238
 24
251.471827
 34
0.0
100
AcDbRotatedDimension
1001
ACAD
1000
DSTYLE
1002
{
1070
   279
1070
     0
1070
   176
1070
     0
1070
   177
1070
     0
1070
   178
1070
     0
1070
     3
1000

1002
}
  0
LINE
  5
1EE
330
1B0
100
AcDbEntity
  8
0
  6
CENTER2
 62
     0
370
     0
100
AcDbLine
 10
119.425987
 20
239.724487
 30
0.0
 11
178.474686
 21
239.724487
 31
0.0
  0
DIMENSION
  5
1EF
330
1B0
100
AcDbEntity
  8
0
  6
Continuous
 62
     0
370
     0
100
AcDbDimension
  2
*D7
 10
105.851997
 20
224.724487
 30
0.0
 11
102.737505
 21
239.724487
 31
0.0
 70
    33
  1
\fArial|b0|i0|c0|p0;%%c<>
 71
     5
 42
30.0
  3
zucchetti
100
AcDbAlignedDimension
 13
125.659238
 23
254.724487
 33
0.0
 14
125.659238
 24
224.724487
 34
0.0
1001
ACAD
1000
DSTYLE
1002
{
1070
   280
1070
     0
1070
   344
1005
0
1070
   343
1005
0
1070
    76
1070
     0
1070
    75
1070
     0
1070
   176
1070
     0
1070
   177
1070
     0
1070
   178
1070
     0
1070
     3
1000

1002
}
  0
ENDBLK
  5
1FD
330
1B0
100
AcDbEntity
  8
0
100
AcDbBlockEnd
  0
BLOCK
  5
1B4
330
1B3
100
AcDbEntity
  8
0
100
AcDbBlockBegin
  2
*D5
 70
     1
 10
0.0
 20
0.0
 30
0.0
  3
*D5
  1

  0
LINE
  5
1B6
330
1B3
100
AcDbEntity
  8
0
  6
Continuous
 62
     0
370
    -2
100
AcDbLine
 10
121.659238
 20
268.124487
 30
0.0
 11
121.659238
 21
278.527783
 31
0.0
  0
LINE
  5
1B7
330
1B3
100
AcDbEntity
  8
0
  6
Continuous
 62
     0
370
    -2
100
AcDbLine
 10
125.659241
 20
240.624487
 30
0.0
 11
125.659241
 21
278.527783
 31
0.0
  0
LINE
  5
1B8
330
1B3
100
AcDbEntity
  8
0
  6
Continuous
 62
     0
370
    -2
100
AcDbLine
 10
121.659238
 20
276.727783
 30
0.0
 11
110.586238
 21
276.727783
 31
0.0
  0
LINE
  5
1B9
330
1B3
100
AcDbEntity
  8
0
  6
Continuous
 62
     0
370
    -2
100
AcDbLine
 10
121.659238
 20
276.727783
 30
0.0
 11
125.659241
 21
276.727783
 31
0.0
  0
LINE
  5
1BA
330
1B3
100
AcDbEntity
  8
0
  6
Continuous
 62
     0
370
    -2
100
AcDbLine
 10
118.659238
 20
276.727783
 30
0.0
 11
115.659238
 21
276.727783
 31
0.0
  0
LINE
  5
1BB
330
1B3
100
AcDbEntity
  8
0
  6
Continuous
 62
     0
370
    -2
100
AcDbLine
 10
128.659241
 20
276.727783
 30
0.0
 11
131.659241
 21
276.727783
 31
0.0
  0
SOLID
  5
1BC
330
1B3
100
AcDbEntity
  8
0
 62
     0
100
AcDbTrace
 10
118.659238
 20
276.227783
 30
0.0
 11
118.659238
 21
277.227783
 31
0.0
 12
121.659238
 22
276.727783
 32
0.0
 13
121.659238
 23
276.727783
 33
0.0
  0
SOLID
  5
1BD
330
1B3
100
AcDbEntity
  8
0
 62
     0
100
AcDbTrace
 10
128.659241
 20
277.227783
 30
0.0
 11
128.659241
 21
276.227783
 31
0.0
 12
125.659241
 22
276.727783
 32
0.0
 13
125.659241
 23
276.727783
 33
0.0
  0
MTEXT
  5
1BE
330
1B3
100
AcDbEntity
  8
0
 62
     0
370
     0
100
AcDbMText
 10
113.122738
 20
279.727783
 30
0.0
 40
3.0
 41
0.0
 71
     5
 72
     1
  1
\A1;\fArial|b0|i0|c0|p0;4
  7
zucchetti
 73
     1
 44
1.0
  0
POINT
  5
1BF
330
1B3
100
AcDbEntity
  8
Defpoints
 62
     0
100
AcDbPoint
 10
121.659238
 20
267.224487
 30
0.0
  0
POINT
  5
1C0
330
1B3
100
AcDbEntity
  8
Defpoints
 62
     0
100
AcDbPoint
 10
125.659241
 20
239.724487
 30
0.0
  0
POINT
  5
1C1
330
1B3
100
AcDbEntity
  8
Defpoints
 62
     0
100
AcDbPoint
 10
125.659241
 20
276.727783
 30
0.0
  0
ENDBLK
  5
1B5
330
1B3
100
AcDbEntity
  8
0
100
AcDbBlockEnd
  0
BLOCK
  5
1E2
330
1E1
100
AcDbEntity
  8
0
100
AcDbBlockBegin
  2
*D6
 70
     1
 10
0.0
 20
0.0
 30
0.0
  3
*D6
  1

  0
LINE
  5
1E4
330
1E1
100
AcDbEntity
  8
0
  6
Continuous
 62
     0
370
    -2
100
AcDbLine
 10
125.659238
 20
268.124487
 30
0.0
 11
125.659238
 21
278.527783
 31
0.0
  0
LINE
  5
1E5
330
1E1
100
AcDbEntity
  8
0
  6
Continuous
 62
     0
370
    -2
100
AcDbLine
 10
176.459238
 20
252.371827
 30
0.0
 11
176.459238
 21
278.527783
 31
0.0
  0
LINE
  5
1E6
330
1E1
100
AcDbEntity
  8
0
  6
Continuous
 62
     0
370
    -2
100
AcDbLine
 10
128.659238
 20
276.727783
 30
0.0
 11
173.459238
 21
276.727783
 31
0.0
  0
SOLID
  5
1E7
330
1E1
100
AcDbEntity
  8
0
 62
     0
100
AcDbTrace
 10
128.659238
 20
277.227783
 30
0.0
 11
128.659238
 21
276.227783
 31
0.0
 12
125.659238
 22
276.727783
 32
0.0
 13
125.659238
 23
276.727783
 33
0.0
  0
SOLID
  5
1E8
330
1E1
100
AcDbEntity
  8
0
 62
     0
100
AcDbTrace
 10
173.459238
 20
276.227783
 30
0.0
 11
173.459238
 21
277.227783
 31
0.0
 12
176.459238
 22
276.727783
 32
0.0
 13
176.459238
 23
276.727783
 33
0.0
  0
MTEXT
  5
1E9
330
1E1
100
AcDbEntity
  8
0
 62
     0
370
     0
100
AcDbMText
 10
151.059235
 20
279.759283
 30
0.0
 40
3.0
 41
0.0
 71
     5
 72
     1
  1
\A1;\fArial|b0|i0|c0|p0;50.8
  7
zucchetti
 73
     1
 44
1.0
  0
POINT
  5
1EA
330
1E1
100
AcDbEntity
  8
Defpoints
 62
     0
100
AcDbPoint
 10
125.659238
 20
267.224487
 30
0.0
  0
POINT
  5
1EB
330
1E1
100
AcDbEntity
  8
Defpoints
 62
     0
100
AcDbPoint
 10
176.459238
 20
251.471827
 30
0.0
  0
POINT
  5
1EC
330
1E1
100
AcDbEntity
  8
Defpoints
 62
     0
100
AcDbPoint
 10
176.459238
 20
276.727783
 30
0.0
  0
ENDBLK
  5
1E3
330
1E1
100
AcDbEntity
  8
0
100
AcDbBlockEnd
  0
BLOCK
  5
1F1
330
1F0
100
AcDbEntity
  8
0
100
AcDbBlockBegin
  2
*D7
 70
     1
 10
0.0
 20
0.0
 30
0.0
  3
*D7
  1

  0
LINE
  5
1F3
330
1F0
100
AcDbEntity
  8
0
  6
Continuous
 62
     0
370
    -2
100
AcDbLine
 10
124.759238
 20
254.724487
 30
0.0
 11
104.051997
 21
254.724487
 31
0.0
  0
LINE
  5
1F4
330
1F0
100
AcDbEntity
  8
0
  6
Continuous
 62
     0
370
    -2
100
AcDbLine
 10
124.759238
 20
224.724487
 30
0.0
 11
104.051997
 21
224.724487
 31
0.0
  0
LINE
  5
1F5
330
1F0
100
AcDbEntity
  8
0
  6
Continuous
 62
     0
370
    -2
100
AcDbLine
 10
105.851997
 20
251.724487
 30
0.0
 11
105.851997
 21
227.724487
 31
0.0
  0
SOLID
  5
1F6
330
1F0
100
AcDbEntity
  8
0
 62
     0
100
AcDbTrace
 10
106.351997
 20
251.724487
 30
0.0
 11
105.351997
 21
251.724487
 31
0.0
 12
105.851997
 22
254.724487
 32
0.0
 13
105.851997
 23
254.724487
 33
0.0
  0
SOLID
  5
1F7
330
1F0
100
AcDbEntity
  8
0
 62
     0
100
AcDbTrace
 10
105.351997
 20
227.724487
 30
0.0
 11
106.351997
 21
227.724487
 31
0.0
 12
105.851997
 22
224.724487
 32
0.0
 13
105.851997
 23
224.724487
 33
0.0
  0
MTEXT
  5
1F8
330
1F0
100
AcDbEntity
  8
0
 62
     0
370
     0
100
AcDbMText
 10
102.737505
 20
239.724487
 30
0.0
 40
3.0
 41
0.0
 71
     5
 72
     1
  1
\A1;\fArial|b0|i0|c0|p0;%%c30
  7
zucchetti
 11
0.0
 21
1.0
 31
0.0
 73
     1
 44
1.0
  0
POINT
  5
1F9
330
1F0
100
AcDbEntity
  8
Defpoints
 62
     0
100
AcDbPoint
 10
125.659238
 20
254.724487
 30
0.0
  0
POINT
  5
1FA
330
1F0
100
AcDbEntity
  8
Defpoints
 62
     0
100
AcDbPoint
 10
125.659238
 20
224.724487
 30
0.0
  0
POINT
  5
1FB
330
1F0
100
AcDbEntity
  8
Defpoints
 62
     0
100
AcDbPoint
 10
105.851997
 20
224.724487
 30
0.0
  0
ENDBLK
  5
1F2
330
1F0
100
AcDbEntity
  8
0
100
AcDbBlockEnd
  0
BLOCK
  5
225
330
1FF
100
AcDbEntity
  8
0
100
AcDbBlockBegin
  2
b
 70
     0
 10
94.583214
 20
109.812576
 30
0.0
  3
b
  1

  0
LINE
  5
200
330
1FF
100
AcDbEntity
  8
0
  6
Continuous
 62
     0
370
    30
100
AcDbLine
 10
121.659238
 20
170.511934
 30
0.0
 11
121.659238
 21
115.511934
 31
0.0
  0
LINE
  5
201
330
1FF
100
AcDbEntity
  8
0
  6
Continuous
 62
     0
370
    30
100
AcDbLine
 10
125.659238
 20
170.511934
 30
0.0
 11
125.659238
 21
115.511934
 31
0.0
  0
LINE
  5
202
330
1FF
100
AcDbEntity
  8
0
  6
Continuous
 62
     0
370
    30
100
AcDbLine
 10
121.659238
 20
170.511934
 30
0.0
 11
125.659238
 21
170.511934
 31
0.0
  0
LINE
  5
203
330
1FF
100
AcDbEntity
  8
0
  6
Continuous
 62
     0
370
    30
100
AcDbLine
 10
125.659238
 20
158.011934
 30
0.0
 11
175.959238
 21
158.011934
 31
0.0
  0
ARC
  5
204
330
1FF
100
AcDbEntity
  8
0
  6
Continuous
 62
     0
370
    30
100
AcDbCircle
 10
175.959238
 20
157.511934
 30
0.0
 40
0.5
100
AcDbArc
 50
0.0
 51
90.0
  0
SPLINE
  5
205
330
1FF
100
AcDbEntity
  8
0
  6
Continuous
 62
     0
370
     0
100
AcDbSpline
210
0.0
220
0.0
230
1.0
 70
     8
 71
     3
 72
    14
 73
    10
 74
     0
 42
0.000000001
 43
0.0
 40
0.0
 40
0.0
 40
0.0
 40
0.0
 40
0.1412189399276094
 40
0.2824377535492203
 40
0.4236564408413944
 40
0.5648750017900062
 40
0.7060934363910445
 40
0.8473117446506014
 40
0.9885299265840382
 40
0.9885299265840382
 40
0.9885299265840382
 40
0.9885299265840382
 10
172.4093116329412
 20
134.2188069124339
 30
0.0
 10
172.3743763365359
 20
134.2443665498788
 30
0.0
 10
172.3041052900466
 20
134.3036798158429
 30
0.0
 10
172.20741255704
 20
134.4090313492253
 30
0.0
 10
172.1267441422149
 20
134.5226564710584
 30
0.0
 10
172.0686401784033
 20
134.6354083252989
 30
0.0
 10
172.0377183141829
 20
134.7383259166565
 30
0.0
 10
172.0364094925279
 20
134.8231468757113
 30
0.0
 10
172.0554551184597
 20
134.8632355587139
 30
0.0
 10
172.0694769281628
 20
134.8782576355017
 30
0.0
  0
LINE
  5
206
330
1FF
100
AcDbEntity
  8
0
  6
Continuous
 62
     0
370
     0
100
AcDbLine
 10
172.409312
 20
134.218807
 30
0.0
 11
172.40932
 21
135.011934
 31
0.0
  0
ARC
  5
207
330
1FF
100
AcDbEntity
  8
0
  6
Continuous
 62
     0
370
     0
100
AcDbCircle
 10
172.409356
 20
134.513016
 30
0.0
 40
0.4989182027737467
100
AcDbArc
 50
90.004108
 51
132.939954
  0
SPLINE
  5
208
330
1FF
100
AcDbEntity
  8
0
  6
Continuous
 62
     0
370
     0
100
AcDbSpline
210
0.0
220
0.0
230
1.0
 70
     8
 71
     3
 72
    14
 73
    10
 74
     0
 42
0.000000001
 43
0.0
 40
0.0
 40
0.0
 40
0.0
 40
0.0
 40
0.141218545930944
 40
0.2824368339507426
 40
0.4236548639375847
 40
0.5648726358206245
 40
0.7060901495842015
 40
0.8473074052676882
 40
0.9885244029609239
 40
0.9885244029609239
 40
0.9885244029609239
 40
0.9885244029609239
 10
172.4093150724912
 20
151.8050550134198
 30
0.0
 10
172.3743666391043
 20
151.7795066907732
 30
0.0
 10
172.3040718175601
 20
151.7202143979604
 30
0.0
 10
172.2073538924541
 20
151.6148861710449
 30
0.0
 10
172.1266723327601
 20
151.5012743925094
 30
0.0
 10
172.0685680363593
 20
151.3885246581601
 30
0.0
 10
172.0376584007905
 20
151.2855976250271
 30
0.0
 10
172.0363731367154
 20
151.200756286915
 30
0.0
 10
172.0554407586164
 20
151.1606476235071
 30
0.0
 10
172.0694746051942
 20
151.1456144308091
 30
0.0
  0
SPLINE
  5
209
330
1FF
100
AcDbEntity
  8
0
  6
Continuous
 62
     0
370
     0
100
AcDbSpline
210
0.0
220
0.0
230
1.0
 70
     8
 71
     3
 72
    40
 73
    36
 74
     0
 42
0.000000001
 43
0.0
 40
0.2301514753029926
 40
0.2301514753029926
 40
0.2301514753029926
 40
0.2301514753029926
 40
2.562539680461692
 40
3.215067257681589
 40
4.932714103693597
 40
6.077002434848835
 40
7.128932648362403
 40
8.332138285790618
 40
9.313143807497898
 40
10.23026482763325
 40
11.85423911779084
 40
13.73869790018687
 40
15.45909067200007
 40
17.76443342875325
 40
19.59499314055368
 40
21.25836018239191
 40
24.41855147721648
 40
26.95305950612924
 40
28.94638321351834
 40
30.85401202518925
 40
32.93598523551762
 40
34.95525173580689
 40
37.03197081957669
 40
39.26040642727035
 40
41.12091781032404
 40
43.28591524659006
 40
44.83608941346309
 40
45.85211575381282
 40
46.70930323677499
 40
47.74709612750627
 40
49.37482780797243
 40
50.96128524322573
 40
53.00035593549799
 40
54.87213908528115
 40
57.11073943794086
 40
57.11073943794086
 40
57.11073943794086
 40
57.11073943794086
 10
172.4093116329412
 20
134.2188069124339
 30
0.0
 10
171.8881719265792
 20
133.7352957162713
 30
0.0
 10
171.1701997806283
 20
133.1819559237515
 30
0.0
 10
169.9416917255131
 20
132.446230060567
 30
0.0
 10
168.9650861176634
 20
131.9786027778375
 30
0.0
 10
167.7984049481711
 20
131.5781084150686
 30
0.0
 10
166.7347711904503
 20
131.3178574012808
 30
0.0
 10
165.6802768373128
 20
131.1638153292476
 30
0.0
 10
164.6475717615189
 20
131.1110020383129
 30
0.0
 10
163.4725015592721
 20
131.1472324173992
 30
0.0
 10
162.0251971524711
 20
131.3524502041233
 30
0.0
 10
160.4268921218345
 20
131.8273305982649
 30
0.0
 10
158.7718881565621
 20
132.5949020211872
 30
0.0
 10
157.2965815226503
 20
133.5889354458078
 30
0.0
 10
156.005766583024
 20
134.8002493221207
 30
0.0
 10
154.7052793345913
 20
136.4073458504705
 30
0.0
 10
153.5782421446794
 20
138.5131660832079
 30
0.0
 10
152.9187253842896
 20
141.0442755873612
 30
0.0
 10
152.7813869242579
 20
143.2701309739784
 30
0.0
 10
152.9982411191148
 20
145.3251597696661
 30
0.0
 10
153.5482766693364
 20
147.2807605075697
 30
0.0
 10
154.4137257009402
 20
149.1024789284705
 30
0.0
 10
155.552671426879
 20
150.7384891838542
 30
0.0
 10
156.878769120662
 20
152.0861645583153
 30
0.0
 10
158.4070669997615
 20
153.2113820548728
 30
0.0
 10
159.9261293765094
 20
153.9974174373573
 30
0.0
 10
161.3397559841528
 20
154.4780414227002
 30
0.0
 10
162.4207338675253
 20
154.7206402744263
 30
0.0
 10
163.369200309653
 20
154.8557113270095
 30
0.0
 10
164.5410245641066
 20
154.9266166692059
 30
0.0
 10
165.9614570563626
 20
154.8482117812486
 30
0.0
 10
167.6443716659562
 20
154.5191263907578
 30
0.0
 10
169.2727310123499
 20
153.9357472530915
 30
0.0
 10
170.9232038071628
 20
153.0346367277855
 30
0.0
 10
171.9091246293659
 20
152.2691153823502
 30
0.0
 10
172.4093150724912
 20
151.8050550134198
 30
0.0
  0
SPLINE
  5
20A
330
1FF
100
AcDbEntity
  8
0
  6
Continuous
 62
     0
370
     0
100
AcDbSpline
210
0.0
220
0.0
230
1.0
 70
     8
 71
     3
 72
    39
 73
    35
 74
     0
 42
0.000000001
 43
0.0
 40
0.23016439410151
 40
0.23016439410151
 40
0.23016439410151
 40
0.23016439410151
 40
2.429228089227744
 40
3.215067257681589
 40
4.932714103693597
 40
6.077002434848835
 40
7.128932648362403
 40
8.332138285790618
 40
9.313143807497898
 40
10.23026482763325
 40
11.85423911779084
 40
13.73869790018687
 40
15.45909067200007
 40
17.76443342875325
 40
18.93322083999182
 40
21.25836018239191
 40
24.41855147721648
 40
26.95305950612924
 40
28.94638321351834
 40
30.85401202518925
 40
32.75520489299068
 40
34.95525173580689
 40
37.47713731529449
 40
39.26040642727035
 40
41.12091781032404
 40
43.28591524659006
 40
44.83608941346309
 40
45.85211575381282
 40
47.57492464607917
 40
49.37482780797243
 40
50.96128524322573
 40
53.00035593549799
 40
54.68148251964825
 40
57.11071327802632
 40
57.11071327802632
 40
57.11071327802632
 40
57.11071327802632
 10
172.0694769281628
 20
134.8782576355017
 30
0.0
 10
171.5989712270007
 20
134.4569303780126
 30
0.0
 10
170.9143262310976
 20
133.942221290358
 30
0.0
 10
169.7426278178358
 20
133.2569172133255
 30
0.0
 10
168.77256872326
 20
132.8087254161053
 30
0.0
 10
167.6562864558758
 20
132.4390140441531
 30
0.0
 10
166.6387369403744
 20
132.1988164069102
 30
0.0
 10
165.6300367397874
 20
132.0566684332564
 30
0.0
 10
164.6422320340793
 20
132.0079366671823
 30
0.0
 10
163.5182569356433
 20
132.0413671330302
 30
0.0
 10
162.1338197376408
 20
132.2307326690295
 30
0.0
 10
160.6046626766785
 20
132.669051889063
 30
0.0
 10
159.0208844451051
 20
133.377803880271
 30
0.0
 10
157.7681048654281
 20
134.192352170422
 30
0.0
 10
156.5062811943201
 20
135.2781804843179
 30
0.0
 10
155.2241291801047
 20
136.7263603578517
 30
0.0
 10
154.0469715601311
 20
138.8492467009755
 30
0.0
 10
153.4149438278715
 20
141.1911567282843
 30
0.0
 10
153.283299127272
 20
143.2508764958228
 30
0.0
 10
153.4848817298078
 20
145.0949370423569
 30
0.0
 10
153.9975027928425
 20
146.9091576689933
 30
0.0
 10
154.8754477766923
 20
148.7259221140295
 30
0.0
 10
156.0242487437243
 20
150.257891531788
 30
0.0
 10
157.3126130174109
 20
151.4794617363905
 30
0.0
 10
158.6716995324269
 20
152.4450979268356
 30
0.0
 10
160.1254649647844
 20
153.1709878751905
 30
0.0
 10
161.4781119224255
 20
153.6146380739747
 30
0.0
 10
162.7734570284947
 20
153.8952094560931
 30
0.0
 10
164.2096981894105
 20
154.0418180321963
 30
0.0
 10
165.8463108149588
 20
153.9662715531065
 30
0.0
 10
167.508848178304
 20
153.6525670539234
 30
0.0
 10
169.012918656292
 20
153.1327535950842
 30
0.0
 10
170.6004307166961
 20
152.311632370802
 30
0.0
 10
171.5497352831612
 20
151.6110452879915
 30
0.0
 10
172.0694746051942
 20
151.1456144308091
 30
0.0
  0
LINE
  5
20B
330
1FF
100
AcDbEntity
  8
0
  6
Continuous
 62
     0
370
     0
100
AcDbLine
 10
172.409326
 20
151.805055
 30
0.0
 11
172.409326
 21
151.011934
 31
0.0
  0
ARC
  5
20C
330
1FF
100
AcDbEntity
  8
0
  6
Continuous
 62
     0
370
    30
100
AcDbCircle
 10
172.409359
 20
151.510853
 30
0.0
 40
0.4989193687285794
100
AcDbArc
 50
227.059335
 51
269.99624
  0
ELLIPSE
  5
20D
330
1FF
100
AcDbEntity
  8
0
  6
Continuous
 62
     0
370
     0
100
AcDbEllipse
 10
175.959238
 20
134.511934
 30
0.0
 11
0.5
 21
0.0
 31
0.0
210
0.0
220
0.0
230
-1.0
 40
0.586207
 41
0.0
 42
1.570796326794897
  0
ARC
  5
20E
330
1FF
100
AcDbEntity
  8
0
  6
Continuous
 62
     0
370
    30
100
AcDbCircle
 10
175.959238
 20
134.511934
 30
0.0
 40
0.5
100
AcDbArc
 50
360.0
 51
90.0
  0
LINE
  5
20F
330
1FF
100
AcDbEntity
  8
0
  6
Continuous
 62
     0
370
     0
100
AcDbLine
 10
175.959238
 20
135.011934
 30
0.0
 11
175.959238
 21
134.21883
 31
0.0
  0
LINE
  5
210
330
1FF
100
AcDbEntity
  8
0
  6
Continuous
 62
     0
370
     0
100
AcDbLine
 10
172.409312
 20
134.21883
 30
0.0
 11
175.959238
 21
134.21883
 31
0.0
  0
LINE
  5
211
330
1FF
100
AcDbEntity
  8
0
  6
Continuous
 62
     0
370
    30
100
AcDbLine
 10
172.40932
 20
135.011934
 30
0.0
 11
175.959238
 21
135.011934
 31
0.0
  0
ELLIPSE
  5
212
330
1FF
100
AcDbEntity
  8
0
  6
Continuous
 62
     0
370
     0
100
AcDbEllipse
 10
175.959238
 20
151.511934
 30
0.0
 11
0.5
 21
0.0
 31
0.0
210
0.0
220
0.0
230
1.0
 40
0.586207
 41
0.0
 42
1.570796326794897
  0
LINE
  5
213
330
1FF
100
AcDbEntity
  8
0
  6
Continuous
 62
     0
370
    30
100
AcDbLine
 10
176.459238
 20
157.511934
 30
0.0
 11
176.459238
 21
151.511934
 31
0.0
  0
LINE
  5
214
330
1FF
100
AcDbEntity
  8
0
  6
Continuous
 62
     0
370
     0
100
AcDbLine
 10
175.959238
 20
158.011934
 30
0.0
 11
175.959238
 21
151.805037
 31
0.0
  0
ARC
  5
215
330
1FF
100
AcDbEntity
  8
0
  6
Continuous
 62
     0
370
    30
100
AcDbCircle
 10
175.959238
 20
151.511934
 30
0.0
 40
0.5
100
AcDbArc
 50
270.0
 51
0.0
  0
LINE
  5
216
330
1FF
100
AcDbEntity
  8
0
  6
Continuous
 62
     0
370
     0
100
AcDbLine
 10
175.959238
 20
151.011934
 30
0.0
 11
175.959238
 21
151.805037
 31
0.0
  0
LINE
  5
217
330
1FF
100
AcDbEntity
  8
0
  6
Continuous
 62
     0
370
     0
100
AcDbLine
 10
175.959238
 20
151.805037
 30
0.0
 11
172.409315
 21
151.805037
 31
0.0
  0
LINE
  5
218
330
1FF
100
AcDbEntity
  8
0
  6
Continuous
 62
     0
370
    30
100
AcDbLine
 10
175.959238
 20
151.011934
 30
0.0
 11
172.409326
 21
151.011934
 31
0.0
  0
ARC
  5
219
330
1FF
100
AcDbEntity
  8
0
  6
Continuous
 62
     0
370
     0
100
AcDbCircle
 10
171.148639
 20
151.523775
 30
0.0
 40
0.5118603836629784
100
AcDbArc
 50
232.498266
 51
269.487424
  0
LINE
  5
21A
330
1FF
100
AcDbEntity
  8
0
  6
Continuous
 62
     0
370
     0
100
AcDbLine
 10
172.069492
 20
151.145581
 30
0.0
 11
170.837038
 21
151.117683
 31
0.0
  0
LINE
  5
21B
330
1FF
100
AcDbEntity
  8
0
  6
Continuous
 62
     0
370
    30
100
AcDbLine
 10
172.40932
 20
151.011934
 30
0.0
 11
171.144057
 21
151.011935
 31
0.0
  0
SPLINE
  5
21C
330
1FF
100
AcDbEntity
  8
0
  6
Continuous
 62
     0
370
     0
100
AcDbSpline
210
0.0
220
0.0
230
1.0
 70
     8
 71
     3
 72
    36
 73
    32
 74
     0
 42
0.000000001
 43
0.0
 40
0.1921521974265947
 40
0.1921521974265947
 40
0.1921521974265947
 40
0.1921521974265947
 40
1.957834966809553
 40
3.061224818333611
 40
5.374507324843476
 40
6.272340353372924
 40
7.258460226871992
 40
8.7946821335797
 40
10.42372099778741
 40
12.12168865226766
 40
14.16883767670296
 40
15.18545388218637
 40
17.12155445910949
 40
19.85186588838214
 40
21.80127269930033
 40
23.84624158407346
 40
25.76254972946964
 40
27.62473017254639
 40
29.65453667914456
 40
31.63744201126872
 40
34.48678621702562
 40
35.89972635979734
 40
38.18007153412038
 40
40.03874031853034
 40
42.02823665158273
 40
42.96260883512779
 40
43.85056060049207
 40
45.26856786178696
 40
47.14230037739671
 40
48.71624691819468
 40
50.7234267974068
 40
50.7234267974068
 40
50.7234267974068
 40
50.7234267974068
 10
170.837025442949
 20
151.1176979809072
 30
0.0
 10
170.4390182361035
 20
151.4384384560648
 30
0.0
 10
169.7531185665695
 20
151.9117293097735
 30
0.0
 10
168.4023267041966
 20
152.6162867956591
 30
0.0
 10
167.1641278345671
 20
153.0441210686247
 30
0.0
 10
165.8738078695205
 20
153.281082648983
 30
0.0
 10
164.7940563827936
 20
153.3809444667331
 30
0.0
 10
163.4670122782391
 20
153.3416389382254
 30
0.0
 10
161.967251690075
 20
153.0657132368958
 30
0.0
 10
160.4312118235392
 20
152.5301463374128
 30
0.0
 10
159.2048826245985
 20
151.8597166613328
 30
0.0
 10
158.0335372037752
 20
151.0060533658996
 30
0.0
 10
156.8314179373859
 20
149.87667878476
 30
0.0
 10
155.6887202386949
 20
148.2802304505267
 30
0.0
 10
154.853005024869
 20
146.3992780327634
 30
0.0
 10
154.4101469493299
 20
144.5926935317442
 30
0.0
 10
154.2988010353562
 20
142.7363946232868
 30
0.0
 10
154.5076578717876
 20
140.899093233627
 30
0.0
 10
155.0320133668796
 20
139.1393978053999
 30
0.0
 10
155.969595888474
 20
137.2792100552869
 30
0.0
 10
157.1192385239233
 20
135.8423975851014
 30
0.0
 10
158.5466979642008
 20
134.5953990587973
 30
0.0
 10
159.915393476704
 20
133.7318386789758
 30
0.0
 10
161.6177894224652
 20
133.0447601235263
 30
0.0
 10
163.0797954179834
 20
132.7356283726558
 30
0.0
 10
164.2886820009742
 20
132.6541563252159
 30
0.0
 10
165.3207067944925
 20
132.675268009408
 30
0.0
 10
166.6305174036873
 20
132.8489570837491
 30
0.0
 10
168.0604976603127
 20
133.2709339659383
 30
0.0
 10
169.5219095649952
 20
133.9589357837131
 30
0.0
 10
170.3845916883093
 20
134.5415535419012
 30
0.0
 10
170.8370216131944
 20
134.906166205459
 30
0.0
  0
ARC
  5
21D
330
1FF
100
AcDbEntity
  8
0
  6
Continuous
 62
     0
370
     0
100
AcDbCircle
 10
171.148642
 20
134.500095
 30
0.0
 40
0.5118598132636938
100
AcDbArc
 50
90.51278
 51
127.502752
  0
LINE
  5
21E
330
1FF
100
AcDbEntity
  8
0
  6
Continuous
 62
     0
370
     0
100
AcDbLine
 10
170.837038
 20
134.906187
 30
0.0
 11
172.069493
 21
134.878286
 31
0.0
  0
LINE
  5
21F
330
1FF
100
AcDbEntity
  8
0
  6
Continuous
 62
     0
370
    30
100
AcDbLine
 10
171.144056
 20
135.011935
 30
0.0
 11
172.40932
 21
135.011934
 31
0.0
  0
LINE
  5
220
330
1FF
100
AcDbEntity
  8
0
  6
Continuous
 62
     0
370
    30
100
AcDbLine
 10
176.459238
 20
134.511934
 30
0.0
 11
176.459238
 21
128.511934
 31
0.0
  0
LINE
  5
221
330
1FF
100
AcDbEntity
  8
0
  6
Continuous
 62
     0
370
     0
100
AcDbLine
 10
175.959238
 20
134.21883
 30
0.0
 11
175.959238
 21
128.011934
 31
0.0
  0
LINE
  5
222
330
1FF
100
AcDbEntity
  8
0
  6
Continuous
 62
     0
370
    30
100
AcDbLine
 10
125.659238
 20
128.011934
 30
0.0
 11
175.959238
 21
128.011934
 31
0.0
  0
ARC
  5
223
330
1FF
100
AcDbEntity
  8
0
  6
Continuous
 62
     0
370
    30
100
AcDbCircle
 10
175.959238
 20
128.511934
 30
0.0
 40
0.5
100
AcDbArc
 50
270.0
 51
0.0
  0
LINE
  5
224
330
1FF
100
AcDbEntity
  8
0
  6
Continuous
 62
     0
370
    30
100
AcDbLine
 10
121.659238
 20
115.511934
 30
0.0
 11
125.659238
 21
115.511934
 31
0.0
  0
ENDBLK
  5
226
330
1FF
100
AcDbEntity
  8
0
100
AcDbBlockEnd
  0
BLOCK
  5
261
330
228
100
AcDbEntity
  8
0
100
AcDbBlockBegin
  2
c
 70
     0
 10
95.125397
 20
72.561249
 30
0.0
  3
c
  1

  0
LINE
  5
229
330
228
100
AcDbEntity
  8
0
  6
CENTER2
 62
     0
370
     0
100
AcDbLine
 10
25.36232
 20
239.724487
 30
0.0
 11
85.86232
 21
239.724487
 31
0.0
  0
LINE
  5
22A
330
228
100
AcDbEntity
  8
0
  6
CENTER2
 62
     0
370
     0
100
AcDbLine
 10
55.61232
 20
209.474487
 30
0.0
 11
55.61232
 21
269.974487
 31
0.0
  0
DIMENSION
  5
22B
330
228
100
AcDbEntity
  8
0
  6
Continuous
 62
     0
370
     0
100
AcDbDimension
  2
*D10
 10
83.11232
 20
179.601852
 30
0.0
 11
55.61232
 21
179.601852
 31
0.0
 70
   161
  1
\fArial|b0|i0|c0|p0;%%c<>
 71
     5
 42
55.0
  3
zucchetti
100
AcDbAlignedDimension
 13
28.11232
 23
239.724487
 33
0.0
 14
83.11232
 24
239.724487
 34
0.0
1001
ACAD
1000
DSTYLE
1002
{
1070
   279
1070
     0
1070
   176
1070
     0
1070
   177
1070
     0
1070
   178
1070
     0
1070
     3
1000

1002
}
  0
CIRCLE
  5
238
330
228
100
AcDbEntity
  8
0
  6
Continuous
 62
     0
370
    30
100
AcDbCircle
 10
55.61232
 20
239.724487
 30
0.0
 40
27.5
  0
LINE
  5
239
330
228
100
AcDbEntity
  8
0
  6
Continuous
 62
     0
370
     0
100
AcDbLine
 10
70.112318
 20
239.724487
 30
0.0
 11
70.612318
 21
239.724487
 31
0.0
  0
ARC
  5
23A
330
228
100
AcDbEntity
  8
0
  6
Continuous
 62
     0
370
    30
100
AcDbCircle
 10
55.612308
 20
239.724418
 30
0.0
 40
15.00004550553949
100
AcDbArc
 50
54.120195
 51
125.879764
  0
SPLINE
  5
23B
330
228
100
AcDbEntity
  8
0
  6
Continuous
 62
     0
370
     0
100
AcDbSpline
210
0.0
220
0.0
230
1.0
 70
     8
 71
     3
 72
    17
 73
    13
 74
     0
 42
0.000000001
 43
0.0
 40
18.80834916208072
 40
18.80834916208072
 40
18.80834916208072
 40
18.80834916208072
 40
18.93322083999182
 40
21.25836018239191
 40
24.41855147721648
 40
26.95305950612924
 40
28.94638321351834
 40
30.85401202518925
 40
32.75520489299068
 40
34.95525173580689
 40
37.47713731529449
 40
38.53248205748721
 40
38.53248205748721
 40
38.53248205748721
 40
38.53248205748721
 10
47.60039770052857
 20
251.5803567082109
 30
0.0
 10
47.62477657095188
 20
251.5983885426931
 30
0.0
 10
48.105759479658
 20
251.9517188124396
 30
0.0
 10
49.32674512541629
 20
252.7380067985583
 30
0.0
 10
51.44963156039312
 20
253.662201749334
 30
0.0
 10
53.79154163778435
 20
254.1759260742231
 30
0.0
 10
55.85126141580026
 20
254.2839771501255
 30
0.0
 10
57.69532194630136
 20
254.1187674659083
 30
0.0
 10
59.50954253238937
 20
253.70375017297
 30
0.0
 10
61.32630690875028
 20
253.0105872954149
 30
0.0
 10
62.68685067962777
 20
252.2437673274731
 30
0.0
 10
63.41819381489765
 20
251.7327583992033
 30
0.0
 10
63.62423780514089
 20
251.5803508132942
 30
0.0
  0
LINE
  5
23C
330
228
100
AcDbEntity
  8
0
  6
Continuous
 62
     0
370
     0
100
AcDbLine
 10
47.112318
 20
251.471827
 30
0.0
 11
46.819214
 21
251.876908
 31
0.0
  0
LINE
  5
23D
330
228
100
AcDbEntity
  8
0
  6
Continuous
 62
     0
370
     0
100
AcDbLine
 10
47.112318
 20
251.471827
 30
0.0
 11
47.612318
 21
251.471827
 31
0.0
  0
ARC
  5
23E
330
228
100
AcDbEntity
  8
0
  6
Continuous
 62
     0
370
    30
100
AcDbCircle
 10
47.112318
 20
251.471827
 30
0.0
 40
0.5000000000000009
100
AcDbArc
 50
0.0
 51
125.888298
  0
LINE
  5
23F
330
228
100
AcDbEntity
  8
0
  6
Continuous
 62
     0
370
     0
100
AcDbLine
 10
64.112318
 20
251.471827
 30
0.0
 11
64.405421
 21
251.876908
 31
0.0
  0
ARC
  5
240
330
228
100
AcDbEntity
  8
0
  6
Continuous
 62
     0
370
     0
100
AcDbCircle
 10
55.612318
 20
239.724487
 30
0.0
 40
14.5
100
AcDbArc
 50
0.0
 51
54.111702
  0
ARC
  5
241
330
228
100
AcDbEntity
  8
0
  6
Continuous
 62
     0
370
    30
100
AcDbCircle
 10
55.612318
 20
239.724487
 30
0.0
 40
15.0
100
AcDbArc
 50
0.0
 51
54.111702
  0
LINE
  5
242
330
228
100
AcDbEntity
  8
0
  6
Continuous
 62
     0
370
     0
100
AcDbLine
 10
64.112318
 20
251.471827
 30
0.0
 11
63.612318
 21
251.471827
 31
0.0
  0
ARC
  5
243
330
228
100
AcDbEntity
  8
0
  6
Continuous
 62
     0
370
    30
100
AcDbCircle
 10
64.112318
 20
251.471827
 30
0.0
 40
0.4999999999999999
100
AcDbArc
 50
54.111702
 51
180.0
  0
LINE
  5
244
330
228
100
AcDbEntity
  8
0
  6
Continuous
 62
     0
370
     0
100
AcDbLine
 10
64.112318
 20
227.977147
 30
0.0
 11
64.405421
 21
227.572066
 31
0.0
  0
ARC
  5
245
330
228
100
AcDbEntity
  8
0
  6
Continuous
 62
     0
370
     0
100
AcDbCircle
 10
55.612318
 20
239.724487
 30
0.0
 40
14.5
100
AcDbArc
 50
305.888298
 51
360.0
  0
ARC
  5
246
330
228
100
AcDbEntity
  8
0
  6
Continuous
 62
     0
370
    30
100
AcDbCircle
 10
55.612318
 20
239.724487
 30
0.0
 40
15.0
100
AcDbArc
 50
305.888298
 51
360.0
  0
LINE
  5
247
330
228
100
AcDbEntity
  8
0
  6
Continuous
 62
     0
370
     0
100
AcDbLine
 10
64.112318
 20
227.977147
 30
0.0
 11
63.612318
 21
227.977147
 31
0.0
  0
ARC
  5
248
330
228
100
AcDbEntity
  8
0
  6
Continuous
 62
     0
370
    30
100
AcDbCircle
 10
64.112318
 20
227.977147
 30
0.0
 40
0.4999999999999993
100
AcDbArc
 50
180.0
 51
305.888298
  0
LINE
  5
249
330
228
100
AcDbEntity
  8
0
  6
Continuous
 62
     0
370
     0
100
AcDbLine
 10
64.112318
 20
227.977147
 30
0.0
 11
64.112318
 21
251.471827
 31
0.0
  0
LINE
  5
24A
330
228
100
AcDbEntity
  8
0
  6
Continuous
 62
     0
370
    30
100
AcDbLine
 10
63.612318
 20
227.977147
 30
0.0
 11
63.612318
 21
251.471827
 31
0.0
  0
ARC
  5
24B
330
228
100
AcDbEntity
  8
0
  6
Continuous
 62
     0
370
    30
100
AcDbCircle
 10
55.612301
 20
239.724688
 30
0.0
 40
15.00016960585856
100
AcDbArc
 50
234.112105
 51
305.880769
  0
SPLINE
  5
24C
330
228
100
AcDbEntity
  8
0
  6
Continuous
 62
     0
370
     0
100
AcDbSpline
210
0.0
220
0.0
230
1.0
 70
     8
 71
     3
 72
    17
 73
    13
 74
     0
 42
0.000000001
 43
0.0
 40
15.43676619210768
 40
15.43676619210768
 40
15.43676619210768
 40
15.43676619210768
 40
17.12155445910949
 40
19.85186588838214
 40
21.80127269930033
 40
23.84624158407346
 40
25.76254972946964
 40
27.62473017254639
 40
29.65453667914456
 40
31.63744201126872
 40
34.48678621702562
 40
35.47888515792614
 40
35.47888515792614
 40
35.47888515792614
 40
35.47888515792614
 10
63.61584592882456
 20
227.91785863927
 30
0.0
 10
63.30394553629687
 20
227.6859366425899
 30
0.0
 10
62.41641875504838
 20
227.0792123924184
 30
0.0
 10
60.8806140413109
 20
226.2810011291053
 30
0.0
 10
58.99966163211172
 20
225.641210056139
 30
0.0
 10
57.19307713519046
 20
225.2921020933109
 30
0.0
 10
55.33677822772104
 20
225.2033580008316
 30
0.0
 10
53.49947683619281
 20
225.3694695520147
 30
0.0
 10
51.7397814030031
 20
225.780294161442
 30
0.0
 10
49.87959364293216
 20
226.4900659776506
 30
0.0
 10
48.53960286004586
 20
227.2529485428542
 30
0.0
 10
47.79246846728542
 20
227.7812142117471
 30
0.0
 10
47.60878630865923
 20
227.917821216707
 30
0.0
  0
LINE
  5
24D
330
228
100
AcDbEntity
  8
0
  6
Continuous
 62
     0
370
     0
100
AcDbLine
 10
47.112318
 20
227.977147
 30
0.0
 11
46.819214
 21
227.572066
 31
0.0
  0
ARC
  5
24E
330
228
100
AcDbEntity
  8
0
  6
Continuous
 62
     0
370
     0
100
AcDbCircle
 10
55.612318
 20
239.724487
 30
0.0
 40
14.5
100
AcDbArc
 50
125.888298
 51
234.111702
  0
ARC
  5
24F
330
228
100
AcDbEntity
  8
0
  6
Continuous
 62
     0
370
    30
100
AcDbCircle
 10
55.612318
 20
239.724487
 30
0.0
 40
15.0
100
AcDbArc
 50
125.888298
 51
234.111702
  0
LINE
  5
250
330
228
100
AcDbEntity
  8
0
  6
Continuous
 62
     0
370
     0
100
AcDbLine
 10
47.112318
 20
227.977147
 30
0.0
 11
47.612318
 21
227.977147
 31
0.0
  0
ARC
  5
251
330
228
100
AcDbEntity
  8
0
  6
Continuous
 62
     0
370
    30
100
AcDbCircle
 10
47.112318
 20
227.977147
 30
0.0
 40
0.4999999999999998
100
AcDbArc
 50
234.111702
 51
360.0
  0
LINE
  5
252
330
228
100
AcDbEntity
  8
0
  6
Continuous
 62
     0
370
     0
100
AcDbLine
 10
47.112318
 20
251.471827
 30
0.0
 11
47.112318
 21
227.977147
 31
0.0
  0
LINE
  5
253
330
228
100
AcDbEntity
  8
0
  6
Continuous
 62
     0
370
    30
100
AcDbLine
 10
47.612318
 20
251.471827
 30
0.0
 11
47.612318
 21
227.977147
 31
0.0
  0
DIMENSION
  5
254
330
228
100
AcDbEntity
  8
0
  6
Continuous
 62
     0
370
     0
100
AcDbDimension
  2
*D11
 10
63.612318
 20
194.402008
 30
0.0
 11
55.61232
 21
194.402008
 31
0.0
 70
   161
  1
\fArial|b0|i0|c0|p0;<>
 71
     5
 42
16.0
  3
zucchetti
100
AcDbAlignedDimension
 13
47.612318
 23
227.977147
 33
0.0
 14
63.612318
 24
227.977147
 34
0.0
1001
ACAD
1000
DSTYLE
1002
{
1070
   279
1070
     0
1070
   176
1070
     0
1070
   177
1070
     0
1070
   178
1070
     0
1070
     3
1000

1002
}
  0
ENDBLK
  5
262
330
228
100
AcDbEntity
  8
0
100
AcDbBlockEnd
  0
BLOCK
  5
22D
330
22C
100
AcDbEntity
  8
0
100
AcDbBlockBegin
  2
*D10
 70
     1
 10
0.0
 20
0.0
 30
0.0
  3
*D10
  1

  0
LINE
  5
22F
330
22C
100
AcDbEntity
  8
0
  6
Continuous
 62
     0
370
    -2
100
AcDbLine
 10
28.11232
 20
238.824487
 30
0.0
 11
28.11232
 21
177.801852
 31
0.0
  0
LINE
  5
230
330
22C
100
AcDbEntity
  8
0
  6
Continuous
 62
     0
370
    -2
100
AcDbLine
 10
83.11232
 20
238.824487
 30
0.0
 11
83.11232
 21
177.801852
 31
0.0
  0
LINE
  5
231
330
22C
100
AcDbEntity
  8
0
  6
Continuous
 62
     0
370
    -2
100
AcDbLine
 10
31.11232
 20
179.601852
 30
0.0
 11
80.11232
 21
179.601852
 31
0.0
  0
SOLID
  5
232
330
22C
100
AcDbEntity
  8
0
 62
     0
100
AcDbTrace
 10
31.11232
 20
180.101852
 30
0.0
 11
31.11232
 21
179.101852
 31
0.0
 12
28.11232
 22
179.601852
 32
0.0
 13
28.11232
 23
179.601852
 33
0.0
  0
SOLID
  5
233
330
22C
100
AcDbEntity
  8
0
 62
     0
100
AcDbTrace
 10
80.11232
 20
179.101852
 30
0.0
 11
80.11232
 21
180.101852
 31
0.0
 12
83.11232
 22
179.601852
 32
0.0
 13
83.11232
 23
179.601852
 33
0.0
  0
MTEXT
  5
234
330
22C
100
AcDbEntity
  8
0
 62
     0
370
     0
100
AcDbMText
 10
55.61232
 20
182.716345
 30
0.0
 40
3.0
 41
0.0
 71
     5
 72
     1
  1
\A1;\fArial|b0|i0|c0|p0;%%c55
  7
zucchetti
 73
     1
 44
1.0
  0
POINT
  5
235
330
22C
100
AcDbEntity
  8
Defpoints
 62
     0
100
AcDbPoint
 10
28.11232
 20
239.724487
 30
0.0
  0
POINT
  5
236
330
22C
100
AcDbEntity
  8
Defpoints
 62
     0
100
AcDbPoint
 10
83.11232
 20
239.724487
 30
0.0
  0
POINT
  5
237
330
22C
100
AcDbEntity
  8
Defpoints
 62
     0
100
AcDbPoint
 10
83.11232
 20
179.601852
 30
0.0
  0
ENDBLK
  5
22E
330
22C
100
AcDbEntity
  8
0
100
AcDbBlockEnd
  0
BLOCK
  5
256
330
255
100
AcDbEntity
  8
0
100
AcDbBlockBegin
  2
*D11
 70
     1
 10
0.0
 20
0.0
 30
0.0
  3
*D11
  1

  0
LINE
  5
258
330
255
100
AcDbEntity
  8
0
  6
Continuous
 62
     0
370
    -2
100
AcDbLine
 10
47.612318
 20
227.077147
 30
0.0
 11
47.612318
 21
192.602008
 31
0.0
  0
LINE
  5
259
330
255
100
AcDbEntity
  8
0
  6
Continuous
 62
     0
370
    -2
100
AcDbLine
 10
63.612318
 20
227.077147
 30
0.0
 11
63.612318
 21
192.602008
 31
0.0
  0
LINE
  5
25A
330
255
100
AcDbEntity
  8
0
  6
Continuous
 62
     0
370
    -2
100
AcDbLine
 10
50.612318
 20
194.402008
 30
0.0
 11
60.612318
 21
194.402008
 31
0.0
  0
SOLID
  5
25B
330
255
100
AcDbEntity
  8
0
 62
     0
100
AcDbTrace
 10
50.612318
 20
194.902008
 30
0.0
 11
50.612318
 21
193.902008
 31
0.0
 12
47.612318
 22
194.402008
 32
0.0
 13
47.612318
 23
194.402008
 33
0.0
  0
SOLID
  5
25C
330
255
100
AcDbEntity
  8
0
 62
     0
100
AcDbTrace
 10
60.612318
 20
193.902008
 30
0.0
 11
60.612318
 21
194.902008
 31
0.0
 12
63.612318
 22
194.402008
 32
0.0
 13
63.612318
 23
194.402008
 33
0.0
  0
MTEXT
  5
25D
330
255
100
AcDbEntity
  8
0
 62
     0
370
     0
100
AcDbMText
 10
55.61232
 20
197.433508
 30
0.0
 40
3.0
 41
0.0
 71
     5
 72
     1
  1
\A1;\fArial|b0|i0|c0|p0;16
  7
zucchetti
 73
     1
 44
1.0
  0
POINT
  5
25E
330
255
100
AcDbEntity
  8
Defpoints
 62
     0
100
AcDbPoint
 10
47.612318
 20
227.977147
 30
0.0
  0
POINT
  5
25F
330
255
100
AcDbEntity
  8
Defpoints
 62
     0
100
AcDbPoint
 10
63.612318
 20
227.977147
 30
0.0
  0
POINT
  5
260
330
255
100
AcDbEntity
  8
Defpoints
 62
     0
100
AcDbPoint
 10
63.612318
 20
194.402008
 30
0.0
  0
ENDBLK
  5
257
330
255
100
AcDbEntity
  8
0
100
AcDbBlockEnd
  0
BLOCK
  5
2A6
330
264
100
AcDbEntity
  8
0
100
AcDbBlockBegin
  2
d
 70
     0
 10
-121.500744
 20
69.694237
 30
0.0
  3
d
  1

  0
ELLIPSE
  5
265
330
264
100
AcDbEntity
  8
0
  6
Continuous
 62
     0
370
    30
100
AcDbEllipse
 10
68.248606
 20
111.327808
 30
0.0
 11
11.00000016391277
 21
-19.0525591671629
 31
0.0
210
0.0
220
0.0
230
1.0
 40
0.57735
 41
0.0000000314898418
 42
0.7853981633974483
  0
ELLIPSE
  5
266
330
264
100
AcDbEntity
  8
0
  6
Continuous
 62
     0
370
    30
100
AcDbEllipse
 10
68.248606
 20
111.327808
 30
0.0
 11
11.00000016391277
 21
-19.0525591671629
 31
0.0
210
0.0
220
0.0
230
1.0
 40
0.57735
 41
0.7853981633974483
 42
3.141592685079636
  0
ELLIPSE
  5
267
330
264
100
AcDbEntity
  8
0
  6
Continuous
 62
     0
370
    30
100
AcDbEllipse
 10
65.985864
 20
110.021414
 30
0.0
 11
11.00000016391277
 21
-19.0525591671629
 31
0.0
210
0.0
220
0.0
230
1.0
 40
0.57735
 41
5.289320357110989
 42
7.068583470577035
  0
ELLIPSE
  5
268
330
264
100
AcDbEntity
  8
0
  6
Continuous
 62
     0
370
    30
100
AcDbEllipse
 10
65.985864
 20
110.021414
 30
0.0
 11
11.00000016391277
 21
-19.0525591671629
 31
0.0
210
0.0
220
0.0
230
1.0
 40
0.57735
 41
0.7853981633974483
 42
4.135457666638075
  0
ELLIPSE
  5
269
330
264
100
AcDbEntity
  8
0
  6
Continuous
 62
     0
370
    30
100
AcDbEllipse
 10
65.985864
 20
110.021414
 30
0.0
 11
6.000000089406969
 21
-10.39230500027067
 31
0.0
210
0.0
220
0.0
230
1.0
 40
0.57735
 41
0.0000000314898418
 42
0.7853981633974483
  0
ELLIPSE
  5
26A
330
264
100
AcDbEntity
  8
0
  6
Continuous
 62
     0
370
    30
100
AcDbEllipse
 10
65.985864
 20
110.021414
 30
0.0
 11
6.000000089406969
 21
-10.39230500027067
 31
0.0
210
0.0
220
0.0
230
1.0
 40
0.57735
 41
0.7853981633974483
 42
3.141592685079635
  0
ELLIPSE
  5
26B
330
264
100
AcDbEntity
  8
0
  6
Continuous
 62
     0
370
     0
100
AcDbEllipse
 10
45.734325
 20
88.857822
 30
0.0
 11
-0.4000000059604645
 21
0.0
 31
0.0
210
0.0
220
0.0
230
1.0
 40
0.57735
 41
0.7853981633974483
 42
2.356194490192345
  0
ARC
  5
26C
330
264
100
AcDbEntity
  8
0
  6
Continuous
 62
     0
370
     0
100
AcDbCircle
 10
34.728951
 20
105.194818
 30
0.0
 40
0.402345149582149
100
AcDbArc
 50
1.457178
 51
113.909255
  0
SPLINE
  5
26D
330
264
100
AcDbEntity
  8
0
  6
Continuous
 62
     0
370
     0
100
AcDbSpline
210
0.0
220
0.0
230
1.0
 70
     8
 71
     3
 72
    10
 73
     6
 74
     0
 42
0.000000001
 43
0.0
 40
0.0
 40
0.0
 40
0.0
 40
0.0
 40
0.3580711711801403
 40
0.7161438823384463
 40
1.074218133474916
 40
1.074218133474916
 40
1.074218133474916
 40
1.074218133474916
 10
34.56588439672677
 20
105.562637339531
 30
0.0
 10
34.62058324440125
 20
105.5767653538028
 30
0.0
 10
34.76495307918123
 20
105.5384733166079
 30
0.0
 10
34.96151699826033
 20
105.3090674557109
 30
0.0
 10
35.01454097483004
 20
105.1169845314515
 30
0.0
 10
35.01453998269182
 20
105.0390191258841
 30
0.0
  0
SPLINE
  5
26E
330
264
100
AcDbEntity
  8
0
  6
Continuous
 62
     0
370
     0
100
AcDbSpline
210
0.0
220
0.0
230
1.0
 70
     8
 71
     3
 72
    10
 73
     6
 74
     0
 42
0.000000001
 43
0.0
 40
0.0
 40
0.0
 40
0.0
 40
0.0
 40
0.124437947402201
 40
0.2488750634256619
 40
0.3733113480703829
 40
0.3733113480703829
 40
0.3733113480703829
 40
0.3733113480703829
 10
35.01453998269182
 20
105.0390191258841
 30
0.0
 10
35.03797282815098
 20
105.0539359375083
 30
0.0
 10
35.07914739674799
 20
105.0873162583348
 30
0.0
 10
35.11921805001458
 20
105.1443617389718
 30
0.0
 10
35.1299672576385
 20
105.1849011026119
 30
0.0
 10
35.13116559746185
 20
105.2050495916494
 30
0.0
  0
SPLINE
  5
26F
330
264
100
AcDbEntity
  8
0
  6
Continuous
 62
     0
370
     0
100
AcDbSpline
210
0.0
220
0.0
230
1.0
 70
     8
 71
     3
 72
    11
 73
     7
 74
     0
 42
0.000000001
 43
0.0
 40
0.0
 40
0.0
 40
0.0
 40
0.0
 40
0.141218545930944
 40
0.2824368339507426
 40
0.4236548639375847
 40
0.4994116845704392
 40
0.4994116845704392
 40
0.4994116845704392
 40
0.4994116845704392
 10
44.51416682953347
 20
99.8189955107165
 30
0.0
 10
44.5194843357085
 20
99.85082887013192
 30
0.0
 10
44.52570830659182
 20
99.91031200588819
 30
0.0
 10
44.52083758436434
 20
99.97849584133586
 30
0.0
 10
44.505087768145
 20
100.0140654495429
 30
0.0
 10
44.49071421072496
 20
100.0239804774861
 30
0.0
 10
44.48516970803033
 20
100.0259988198807
 30
0.0
  0
SPLINE
  5
270
330
264
100
AcDbEntity
  8
0
  6
Continuous
 62
     0
370
     0
100
AcDbSpline
210
0.0
220
0.0
230
1.0
 70
     8
 71
     3
 72
    30
 73
    26
 74
     0
 42
0.000000001
 43
0.0
 40
15.12748414096945
 40
15.12748414096945
 40
15.12748414096945
 40
15.12748414096945
 40
15.45909067200007
 40
17.76443342875325
 40
19.59499314055368
 40
21.25836018239191
 40
24.41855147721648
 40
26.95305950612924
 40
28.94638321351834
 40
30.85401202518925
 40
32.93598523551762
 40
34.95525173580689
 40
37.03197081957669
 40
39.26040642727035
 40
41.12091781032404
 40
43.28591524659006
 40
44.83608941346309
 40
45.85211575381282
 40
46.70930323677499
 40
47.74709612750627
 40
49.37482780797243
 40
50.96128524322573
 40
53.00035593549799
 40
54.87213908528115
 40
57.11073943794086
 40
57.11073943794086
 40
57.11073943794086
 40
57.11073943794086
 10
40.99806760331528
 20
109.4511079004017
 30
0.0
 10
41.07552790198214
 20
109.4958316929974
 30
0.0
 10
41.69301633407966
 20
109.8491700038043
 30
0.0
 10
42.75862655404662
 20
110.411381936734
 30
0.0
 10
44.1740443992945
 20
111.0088468789671
 30
0.0
 10
45.81882221148918
 20
111.5252920640559
 30
0.0
 10
47.64760258536281
 20
111.7786223178785
 30
0.0
 10
49.45249339971063
 20
111.5144908075418
 30
0.0
 10
50.78931773777363
 20
110.905392475326
 30
0.0
 10
51.82914632911319
 20
110.0483036217291
 30
0.0
 10
52.62425407053392
 20
108.9416296523668
 30
0.0
 10
53.16520171773426
 20
107.622562202004
 30
0.0
 10
53.44638386044682
 20
106.1603672456591
 30
0.0
 10
53.45859001727909
 20
104.6844674185004
 30
0.0
 10
53.23057329288933
 20
103.1969107395176
 30
0.0
 10
52.81591058025922
 20
101.9236122209432
 30
0.0
 10
52.28812457382516
 20
100.9431874878996
 30
0.0
 10
51.81386576059938
 20
100.316133485489
 30
0.0
 10
51.35373983290621
 20
99.8499670508559
 30
0.0
 10
50.73096603862152
 20
99.3836062126381
 30
0.0
 10
49.88309556818727
 20
99.01281595398034
 30
0.0
 10
48.74493648642992
 20
98.84137652579736
 30
0.0
 10
47.49378826009063
 20
98.93691909280254
 30
0.0
 10
46.05039476582727
 20
99.27280647636152
 30
0.0
 10
45.05962945973302
 20
99.61143608769979
 30
0.0
 10
44.51416682953347
 20
99.81899551071649
 30
0.0
  0
SPLINE
  5
271
330
264
100
AcDbEntity
  8
0
  6
Continuous
 62
     0
370
     0
100
AcDbSpline
210
0.0
220
0.0
230
1.0
 70
     8
 71
     3
 72
    10
 73
     6
 74
     0
 42
0.000000001
 43
0.0
 40
0.2301514753029926
 40
0.2301514753029926
 40
0.2301514753029926
 40
0.2301514753029926
 40
2.562539680461692
 40
3.215067257681589
 40
3.699346923896709
 40
3.699346923896709
 40
3.699346923896709
 40
3.699346923896709
 10
34.56588439672678
 20
105.562637339531
 30
0.0
 10
34.58717028817397
 20
105.6621924829424
 30
0.0
 10
34.68030040107281
 20
105.7788949796904
 30
0.0
 10
34.88594824181422
 20
105.9202572985889
 30
0.0
 10
34.96568414514239
 20
105.9682856425142
 30
0.0
 10
35.00192643962586
 20
105.9892096256544
 30
0.0
  0
SPLINE
  5
272
330
264
100
AcDbEntity
  8
0
  6
Continuous
 62
     0
370
     0
100
AcDbSpline
210
0.0
220
0.0
230
1.0
 70
     8
 71
     3
 72
    29
 73
    25
 74
     0
 42
0.000000001
 43
0.0
 40
0.23016439410151
 40
0.23016439410151
 40
0.23016439410151
 40
0.23016439410151
 40
2.429228089227744
 40
3.215067257681589
 40
4.932714103693597
 40
6.077002434848835
 40
7.128932648362403
 40
8.332138285790618
 40
9.313143807497898
 40
10.23026482763325
 40
11.85423911779084
 40
13.73869790018687
 40
15.45909067200007
 40
17.76443342875325
 40
18.93322083999182
 40
21.25836018239191
 40
24.41855147721648
 40
26.95305950612924
 40
28.94638321351834
 40
30.85401202518925
 40
32.75520489299068
 40
34.95525173580689
 40
37.47713731529449
 40
38.57810312248247
 40
38.57810312248247
 40
38.57810312248247
 40
38.57810312248247
 10
35.13116559746184
 20
105.2050495916494
 30
0.0
 10
35.15898511879832
 20
105.2880128078492
 30
0.0
 10
35.25511537579334
 20
105.3915377710486
 30
0.0
 10
35.5302615501611
 20
105.5617662350392
 30
0.0
 10
35.82547426637346
 20
105.706425218656
 30
0.0
 10
36.24779853595582
 20
105.9025416129273
 30
0.0
 10
36.68753516253047
 20
106.1134621171323
 30
0.0
 10
37.17773112986614
 20
106.3651112091395
 30
0.0
 10
37.70895101105157
 20
106.6601720150976
 30
0.0
 10
38.36367848040718
 20
107.0461645424327
 30
0.0
 10
39.2539557683653
 20
107.6034731244241
 30
0.0
 10
40.36692845458927
 20
108.3175962051889
 30
0.0
 10
41.66377942649893
 20
109.1132685932277
 30
0.0
 10
42.83323670729751
 20
109.7535347283883
 30
0.0
 10
44.16126925878508
 20
110.3638707723194
 30
0.0
 10
45.70577825903412
 20
110.918815549764
 30
0.0
 10
47.57256508131982
 20
111.2136234473235
 30
0.0
 10
49.2548783643851
 20
110.9907415414388
 30
0.0
 10
50.49450132590596
 20
110.4316135188254
 30
0.0
 10
51.42362716938635
 20
109.6555947409753
 30
0.0
 10
52.15992307234563
 20
108.6245632573779
 30
0.0
 10
52.69099954897139
 20
107.2917027376609
 30
0.0
 10
52.8850180477154
 20
106.0031580701465
 30
0.0
 10
52.88546634106079
 20
105.1821984828121
 30
0.0
 10
52.8747423545697
 20
104.9322229054438
 30
0.0
  0
ELLIPSE
  5
273
330
264
100
AcDbEntity
  8
0
  6
Continuous
 62
     0
370
     0
100
AcDbEllipse
 10
44.348346
 20
99.650136
 30
0.0
 11
0.1999917617186805
 21
-0.3464145889142721
 31
0.0
210
0.0
220
0.0
230
1.0
 40
0.577366
 41
1.729794520282358
 42
3.141606178506096
  0
ELLIPSE
  5
274
330
264
100
AcDbEntity
  8
0
  6
Continuous
 62
     0
370
     0
100
AcDbEllipse
 10
32.72356
 20
104.042921
 30
0.0
 11
0.09998375621796596
 21
-0.3873025345397548
 31
0.0
210
0.0
220
0.0
230
-1.0
 40
0.806194
 41
1.350477237173482
 42
2.921273563968394
  0
ELLIPSE
  5
275
330
264
100
AcDbEntity
  8
0
  6
Continuous
 62
     0
370
     0
100
AcDbEllipse
 10
32.72356
 20
104.042921
 30
0.0
 11
-0.4000000059604645
 21
-1.720845713811592E-14
 31
0.0
210
0.0
220
0.0
230
1.0
 40
0.57735
 41
0.7853981633973595
 42
2.35619449019232
  0
ELLIPSE
  5
276
330
264
100
AcDbEntity
  8
0
  6
Continuous
 62
     0
370
     0
100
AcDbEllipse
 10
32.72356
 20
104.042921
 30
0.0
 11
0.2000000029802327
 21
-0.3464101666756897
 31
0.0
210
0.0
220
0.0
230
1.0
 40
0.57735
 41
0.7853981633974589
 42
2.98256344542431
  0
LINE
  5
277
330
264
100
AcDbEntity
  8
0
  6
Continuous
 62
     0
370
     0
100
AcDbLine
 10
34.565898
 20
105.562647
 30
0.0
 11
32.557756
 21
104.403246
 31
0.0
  0
LINE
  5
278
330
264
100
AcDbEntity
  8
0
  6
Continuous
 62
     0
370
     0
100
AcDbLine
 10
35.01454
 20
105.03902
 30
0.0
 11
33.006403
 21
103.879622
 31
0.0
  0
ELLIPSE
  5
279
330
264
100
AcDbEntity
  8
0
  6
Continuous
 62
     0
370
     0
100
AcDbEllipse
 10
42.340213
 20
98.490744
 30
0.0
 11
-0.3264939304039506
 21
-0.2310881177770763
 31
0.0
210
0.0
220
0.0
230
-1.0
 40
0.1293
 41
0.6214785274239049
 42
2.192274854218788
  0
ELLIPSE
  5
27A
330
264
100
AcDbEntity
  8
0
  6
Continuous
 62
     0
370
     0
100
AcDbEllipse
 10
37.249044
 20
93.430203
 30
0.0
 11
5.800000086426735
 21
-10.04589483359498
 31
0.0
210
0.0
220
0.0
230
1.0
 40
0.57735
 41
0.7853981633974483
 42
1.729825534960458
  0
ELLIPSE
  5
27B
330
264
100
AcDbEntity
  8
0
  6
Continuous
 62
     0
370
     0
100
AcDbEllipse
 10
37.531887
 20
93.593502
 30
0.0
 11
6.000000089406969
 21
-10.39230500027067
 31
0.0
210
0.0
220
0.0
230
1.0
 40
0.57735
 41
0.7853981633974483
 42
1.729825534960458
  0
ELLIPSE
  5
27C
330
264
100
AcDbEntity
  8
0
  6
Continuous
 62
     0
370
     0
100
AcDbEllipse
 10
42.340213
 20
98.490744
 30
0.0
 11
0.4000000059604645
 21
0.0
 31
0.0
210
0.0
220
0.0
230
-1.0
 40
0.57735
 41
2.356194490192345
 42
3.141592662229482
  0
ELLIPSE
  5
27D
330
264
100
AcDbEntity
  8
0
  6
Continuous
 62
     0
370
     0
100
AcDbEllipse
 10
42.340213
 20
98.490744
 30
0.0
 11
-0.2000000029802323
 21
0.346410166675689
 31
0.0
210
0.0
220
0.0
230
-1.0
 40
0.57735
 41
-0.0000000314898516
 42
1.411767118629335
  0
LINE
  5
27E
330
264
100
AcDbEntity
  8
0
  6
Continuous
 62
     0
370
     0
100
AcDbLine
 10
42.506017
 20
98.659615
 30
0.0
 11
44.514157
 21
99.819015
 31
0.0
  0
ELLIPSE
  5
27F
330
264
100
AcDbEntity
  8
0
  6
Continuous
 62
     0
370
     0
100
AcDbEllipse
 10
42.340213
 20
83.144083
 30
0.0
 11
-0.09998375621796404
 21
0.3873025345397553
 31
0.0
210
0.0
220
0.0
230
1.0
 40
0.806194
 41
1.791115416416316
 42
3.361911743211216
  0
ELLIPSE
  5
280
330
264
100
AcDbEntity
  8
0
  6
Continuous
 62
     0
370
     0
100
AcDbEllipse
 10
37.249044
 20
93.430203
 30
0.0
 11
5.800000086426735
 21
-10.04589483359498
 31
0.0
210
0.0
220
0.0
230
1.0
 40
0.57735
 41
6.124156099014023
 42
7.068583470577035
  0
ELLIPSE
  5
281
330
264
100
AcDbEntity
  8
0
  6
Continuous
 62
     0
370
     0
100
AcDbEllipse
 10
37.531887
 20
93.593502
 30
0.0
 11
6.000000089406969
 21
-10.39230500027067
 31
0.0
210
0.0
220
0.0
230
1.0
 40
0.57735
 41
6.124156099014023
 42
7.068583470577035
  0
ELLIPSE
  5
282
330
264
100
AcDbEntity
  8
0
  6
Continuous
 62
     0
370
     0
100
AcDbEllipse
 10
42.340213
 20
83.144083
 30
0.0
 11
0.4000000059604645
 21
9.858780605578667E-15
 31
0.0
210
0.0
220
0.0
230
-1.0
 40
0.57735
 41
2.356194490192402
 42
3.141592662229484
  0
LINE
  5
283
330
264
100
AcDbEntity
  8
0
  6
Continuous
 62
     0
370
     0
100
AcDbLine
 10
42.05737
 20
82.980784
 30
0.0
 11
42.05737
 21
98.327445
 31
0.0
  0
ARC
  5
284
330
264
100
AcDbEntity
  8
0
  6
Continuous
 62
     0
370
     0
100
AcDbCircle
 10
35.742851
 20
90.235165
 30
0.0
 40
0.1026449174824005
100
AcDbArc
 50
353.564061
 51
9.341785
  0
SPLINE
  5
285
330
264
100
AcDbEntity
  8
0
  6
Continuous
 62
     0
370
     0
100
AcDbSpline
210
0.0
220
0.0
230
1.0
 70
     8
 71
     3
 72
    14
 73
    10
 74
     0
 42
0.000000001
 43
0.0
 40
4.103584204290081
 40
4.103584204290081
 40
4.103584204290081
 40
4.103584204290081
 40
4.355752294740431
 40
5.374507324843476
 40
6.272340353372924
 40
7.258460226871992
 40
8.7946821335797
 40
10.42372099778741
 40
11.33599657584909
 40
11.33599657584909
 40
11.33599657584909
 40
11.33599657584909
 10
48.03158449899669
 20
85.79910323238445
 30
0.0
 10
48.0896530331753
 20
85.83262195851701
 30
0.0
 10
48.38136951627449
 20
86.00170838961986
 30
0.0
 10
48.87048493216898
 20
86.29034266387215
 30
0.0
 10
49.49987788483956
 20
86.66460814680674
 30
0.0
 10
50.20138187669786
 20
87.07854301037551
 30
0.0
 10
50.96422467435217
 20
87.51495998933672
 30
0.0
 10
51.5683052076518
 20
87.84607571003494
 30
0.0
 10
51.86783158773501
 20
88.01396940309947
 30
0.0
 10
51.96575565631036
 20
88.0705058863428
 30
0.0
  0
SPLINE
  5
286
330
264
100
AcDbEntity
  8
0
  6
Continuous
 62
     0
370
     0
100
AcDbSpline
210
0.0
220
0.0
230
1.0
 70
     8
 71
     3
 72
    16
 73
    12
 74
     0
 42
0.000000001
 43
0.0
 40
37.18923498289482
 40
37.18923498289482
 40
37.18923498289482
 40
37.18923498289482
 40
38.18007153412038
 40
40.03874031853034
 40
42.02823665158273
 40
42.96260883512779
 40
43.85056060049207
 40
45.26856786178696
 40
47.14230037739671
 40
48.71624691819468
 40
50.7234267974068
 40
50.7234267974068
 40
50.7234267974068
 40
50.7234267974068
 10
41.94021288164218
 20
94.67688911930132
 30
0.0
 10
41.71561746435354
 20
94.73167600952642
 30
0.0
 10
41.07362928354488
 20
94.86730521494565
 30
0.0
 10
40.00634959969581
 20
94.97086721456247
 30
0.0
 10
39.00444278487986
 20
94.8274171289134
 30
0.0
 10
38.27450570618748
 20
94.52198840199924
 30
0.0
 10
37.70264688521303
 20
94.16173262838913
 30
0.0
 10
37.05995947735663
 20
93.54403477572495
 30
0.0
 10
36.48974664012722
 20
92.63501759827892
 30
0.0
 10
36.05223980327785
 20
91.49298624781075
 30
0.0
 10
35.89381145933888
 20
90.69923454391791
 30
0.0
 10
35.84413450697158
 20
90.25182623905984
 30
0.0
  0
ELLIPSE
  5
287
330
264
100
AcDbEntity
  8
0
  6
Continuous
 62
     0
370
     0
100
AcDbEllipse
 10
35.447436
 20
90.268894
 30
0.0
 11
0.2000111967080028
 21
-0.3464031919901584
 31
0.0
210
0.0
220
0.0
230
1.0
 40
0.577328
 41
6.283166313667181
 42
7.068564445212798
  0
SPLINE
  5
288
330
264
100
AcDbEntity
  8
0
  6
Continuous
 62
     0
370
     0
100
AcDbSpline
210
0.0
220
0.0
230
1.0
 70
     8
 71
     3
 72
     8
 73
     4
 74
     0
 42
0.000000001
 43
0.0
 40
0.0
 40
0.0
 40
0.0
 40
0.0
 40
0.3252153945734097
 40
0.3252153945734097
 40
0.3252153945734097
 40
0.3252153945734097
 10
35.73027871604985
 20
90.10559515974035
 30
0.0
 10
35.79150228823829
 20
90.14496487054103
 30
0.0
 10
35.83358044285283
 20
90.1990080043495
 30
0.0
 10
35.84413450697157
 20
90.25182623905982
 30
0.0
  0
ARC
  5
289
330
264
100
AcDbEntity
  8
0
  6
Continuous
 62
     0
370
     0
100
AcDbCircle
 10
3217.267807
 20
249.434619
 30
0.0
 40
3185.403543006301
100
AcDbArc
 50
182.595141
 51
182.86441
  0
ARC
  5
28A
330
264
100
AcDbEntity
  8
0
  6
Continuous
 62
     0
370
     0
100
AcDbCircle
 10
3043.240781
 20
241.735918
 30
0.0
 40
3011.330463355795
100
AcDbArc
 50
182.601789
 51
182.88625
  0
ELLIPSE
  5
28B
330
264
100
AcDbEntity
  8
0
  6
Continuous
 62
     0
370
     0
100
AcDbEllipse
 10
32.72356
 20
88.69626
 30
0.0
 11
0.32649393040395
 21
0.2310881177770774
 31
0.0
210
0.0
220
0.0
230
1.0
 40
0.1293
 41
2.520114126165919
 42
3.141614048686811
  0
ELLIPSE
  5
28C
330
264
100
AcDbEntity
  8
0
  6
Continuous
 62
     0
370
     0
100
AcDbEllipse
 10
37.249044
 20
93.430203
 30
0.0
 11
5.800000086426735
 21
-10.04589483359498
 31
0.0
210
0.0
220
0.0
230
1.0
 40
0.57735
 41
2.982563445424235
 42
4.871418188550253
  0
ELLIPSE
  5
28D
330
264
100
AcDbEntity
  8
0
  6
Continuous
 62
     0
370
     0
100
AcDbEllipse
 10
37.531887
 20
93.593502
 30
0.0
 11
6.000000089406969
 21
-10.39230500027067
 31
0.0
210
0.0
220
0.0
230
1.0
 40
0.57735
 41
2.982563445424234
 42
3.141592705172064
  0
ELLIPSE
  5
28E
330
264
100
AcDbEntity
  8
0
  6
Continuous
 62
     0
370
     0
100
AcDbEllipse
 10
32.72356
 20
88.69626
 30
0.0
 11
-0.4000000059604645
 21
-1.469935306507450E-14
 31
0.0
210
0.0
220
0.0
230
1.0
 40
0.57735
 41
0.7853981633974909
 42
2.356194490192316
  0
ELLIPSE
  5
28F
330
264
100
AcDbEntity
  8
0
  6
Continuous
 62
     0
370
     0
100
AcDbEllipse
 10
32.72356
 20
88.69626
 30
0.0
 11
-0.2000000029802323
 21
0.346410166675689
 31
0.0
210
0.0
220
0.0
230
-1.0
 40
0.57735
 41
2.356194490192352
 42
3.141603679339669
  0
LINE
  5
290
330
264
100
AcDbEntity
  8
0
  6
Continuous
 62
     0
370
     0
100
AcDbLine
 10
33.006403
 20
88.532961
 30
0.0
 11
35.730279
 21
90.105591
 31
0.0
  0
LINE
  5
291
330
264
100
AcDbEntity
  8
0
  6
Continuous
 62
     0
370
     0
100
AcDbLine
 10
32.440718
 20
103.879622
 30
0.0
 11
32.440718
 21
88.532961
 31
0.0
  0
LINE
  5
292
330
264
100
AcDbEntity
  8
0
  6
Continuous
 62
     0
370
     0
100
AcDbLine
 10
33.006403
 20
103.879622
 30
0.0
 11
33.006403
 21
88.532961
 31
0.0
  0
ARC
  5
293
330
264
100
AcDbEntity
  8
0
  6
Continuous
 62
     0
370
    30
100
AcDbCircle
 10
32.723561
 20
88.696263
 30
0.0
 40
0.4000019219534269
100
AcDbArc
 50
215.290612
 51
299.999751
  0
ARC
  5
294
330
264
100
AcDbEntity
  8
0
  6
Continuous
 62
     0
370
    30
100
AcDbCircle
 10
35.447607
 20
90.268755
 30
0.0
 40
0.399793403130036
100
AcDbArc
 50
299.990729
 51
353.523354
  0
ARC
  5
295
330
264
100
AcDbEntity
  8
0
  6
Continuous
 62
     0
370
    30
100
AcDbCircle
 10
42.340667
 20
83.14467
 30
0.0
 40
0.4004547761145272
100
AcDbArc
 50
180.083918
 51
284.391189
  0
ARC
  5
296
330
264
100
AcDbEntity
  8
0
  6
Continuous
 62
     0
370
    30
100
AcDbCircle
 10
42.340269
 20
98.490712
 30
0.0
 40
0.4000566266371883
100
AcDbArc
 50
120.004683
 51
179.995318
  0
ARC
  5
297
330
264
100
AcDbEntity
  8
0
  6
Continuous
 62
     0
370
    30
100
AcDbCircle
 10
44.348334
 20
99.650161
 30
0.0
 40
0.3999725226809475
100
AcDbArc
 50
69.994427
 51
119.998898
  0
LINE
  5
298
330
264
100
AcDbEntity
  8
0
  6
Continuous
 62
     0
370
    30
100
AcDbLine
 10
59.985864
 20
120.413718
 30
0.0
 11
40.997984
 21
109.451061
 31
0.0
  0
LINE
  5
299
330
264
100
AcDbEntity
  8
0
  6
Continuous
 62
     0
370
    30
100
AcDbLine
 10
35.002316
 20
105.98946
 30
0.0
 11
31.531886
 21
103.985807
 31
0.0
  0
LINE
  5
29A
330
264
100
AcDbEntity
  8
0
  6
Continuous
 62
     0
370
    30
100
AcDbLine
 10
71.985864
 20
99.629109
 30
0.0
 11
51.965276
 21
88.070217
 31
0.0
  0
LINE
  5
29B
330
264
100
AcDbEntity
  8
0
  6
Continuous
 62
     0
370
    30
100
AcDbLine
 10
48.03513
 20
85.801146
 30
0.0
 11
43.531887
 21
83.201197
 31
0.0
  0
SPLINE
  5
29C
330
264
100
AcDbEntity
  8
0
  6
Continuous
 62
     0
370
    30
100
AcDbSpline
210
0.0
220
0.0
230
1.0
 70
     8
 71
     3
 72
    23
 73
    19
 74
     0
 42
0.000000001
 43
0.0
 40
0.0
 40
0.0
 40
0.0
 40
0.0
 40
1.550329074060011
 40
3.924185645301026
 40
4.999685986022732
 40
6.029906116159454
 40
7.148331353780853
 40
8.457524477779609
 40
9.909528733695565
 40
10.77923131255911
 40
12.49166446274961
 40
13.62406038365769
 40
15.13970442010876
 40
16.16950331220362
 40
16.69241490670219
 40
17.21646560948286
 40
17.47890302777755
 40
17.74160594923484
 40
17.74160594923484
 40
17.74160594923484
 40
17.74160594923484
 10
52.87474235456972
 20
104.9322229054438
 30
0.0
 10
52.85942797237012
 20
104.5752454419162
 30
0.0
 10
52.76236309599634
 20
103.6679124378349
 30
0.0
 10
52.45458769710993
 20
102.5350529312723
 30
0.0
 10
52.0274121546582
 20
101.5915447830013
 30
0.0
 10
51.65140257773982
 20
100.9600235652374
 30
0.0
 10
51.17162509050015
 20
100.3559022496802
 30
0.0
 10
50.53979171374682
 20
99.80382315550601
 30
0.0
 10
49.86323939006596
 20
99.45588628651711
 30
0.0
 10
49.0532798069511
 20
99.22868015016138
 30
0.0
 10
48.25799131796175
 20
99.17068486665053
 30
0.0
 10
47.28570947523164
 20
99.25380940164112
 30
0.0
 10
46.44244304548869
 20
99.4191563701589
 30
0.0
 10
45.72522190754724
 20
99.61475321229182
 30
0.0
 10
45.23488690898805
 20
99.7669957222462
 30
0.0
 10
44.92391301091907
 20
99.87053815598671
 30
0.0
 10
44.67358022913174
 20
99.95829298630342
 30
0.0
 10
44.54819171393491
 20
100.002590677652
 30
0.0
 10
44.48516467374882
 20
100.0260058426609
 30
0.0
  0
SPLINE
  5
29D
330
264
100
AcDbEntity
  8
0
  6
Continuous
 62
     0
370
    30
100
AcDbSpline
210
0.0
220
0.0
230
1.0
 70
     8
 71
     3
 72
    16
 73
    12
 74
     0
 42
0.000000001
 43
0.0
 40
0.0
 40
0.0
 40
0.0
 40
0.0
 40
0.6797837474482059
 40
2.203124503227701
 40
3.548839663552536
 40
4.553529686592055
 40
5.388283701885293
 40
6.651563525258797
 40
7.758359631365489
 40
8.798350996527768
 40
11.42073158782871
 40
11.42073158782871
 40
11.42073158782871
 40
11.42073158782871
 10
40.99806760331528
 20
109.4511079004017
 30
0.0
 10
40.84109426843933
 20
109.3604751119127
 30
0.0
 10
40.33455482620676
 20
109.0628302432015
 30
0.0
 10
39.53161097688598
 20
108.5693469498232
 30
0.0
 10
38.68189907343733
 20
108.0373819693163
 30
0.0
 10
38.01309223173858
 20
107.6252619298141
 30
0.0
 10
37.39506003104451
 20
107.2557031499436
 30
0.0
 10
36.80784096879225
 20
106.9223491400985
 30
0.0
 10
36.26092822869969
 20
106.632366608094
 30
0.0
 10
35.59980013074281
 20
106.2991669205799
 30
0.0
 10
35.22264518999456
 20
106.1166385810254
 30
0.0
 10
35.00192573792835
 20
105.9892092205391
 30
0.0
  0
LINE
  5
29E
330
264
100
AcDbEntity
  8
0
  6
Continuous
 62
     0
370
    30
100
AcDbLine
 10
42.140213
 20
98.837154
 30
0.0
 11
44.148348
 21
99.996552
 31
0.0
  0
ARC
  5
29F
330
264
100
AcDbEntity
  8
0
  6
Continuous
 62
     0
370
    30
100
AcDbCircle
 10
41.36019
 20
86.972823
 30
0.0
 40
4.352174500990663
100
AcDbArc
 50
284.368255
 51
299.933274
  0
LINE
  5
2A0
330
264
100
AcDbEntity
  8
0
  6
Continuous
 62
     0
370
    30
100
AcDbLine
 10
41.940213
 20
83.144083
 30
0.0
 11
41.940213
 21
98.490744
 31
0.0
  0
SPLINE
  5
2A1
330
264
100
AcDbEntity
  8
0
  6
Continuous
 62
     0
370
    30
100
AcDbSpline
210
0.0
220
0.0
230
1.0
 70
     8
 71
     3
 72
    22
 73
    18
 74
     0
 42
0.000000001
 43
0.0
 40
20.22033634269438
 40
20.22033634269438
 40
20.22033634269438
 40
20.22033634269438
 40
21.15989509258667
 40
22.32781843042674
 40
23.55550454263603
 40
24.63230477754821
 40
25.47079828365125
 40
26.63585203476731
 40
27.42559956125984
 40
28.84797048775866
 40
29.72943398042878
 40
30.96015041398988
 40
31.87368136676063
 40
32.46570491391105
 40
32.75488369210264
 40
33.03942973727495
 40
33.31691152063749
 40
33.31691152063749
 40
33.31691152063749
 40
33.31691152063749
 10
41.94021288343326
 20
94.45463241141397
 30
0.0
 10
41.71734413471542
 20
94.50878506850366
 30
0.0
 10
41.22093646342763
 20
94.61464218141788
 30
0.0
 10
40.45068405063656
 20
94.71666442844352
 30
0.0
 10
39.67518716223681
 20
94.7241733922269
 30
0.0
 10
39.00727628416907
 20
94.62434339365865
 30
0.0
 10
38.39165789925698
 20
94.42664302473825
 30
0.0
 10
37.87813320613337
 20
94.14695233030638
 30
0.0
 10
37.32272439927017
 20
93.69431318521673
 30
0.0
 10
36.88832400679242
 20
93.17574577604597
 30
0.0
 10
36.4868326247704
 20
92.49658506406644
 30
0.0
 10
36.21583951301649
 20
91.86617090222995
 30
0.0
 10
36.03500050494293
 20
91.26849653250888
 30
0.0
 10
35.94534600179681
 20
90.86869097795213
 30
0.0
 10
35.89771087417061
 20
90.60696468808334
 30
0.0
 10
35.86887608466485
 20
90.41506146184976
 30
0.0
 10
35.85115514824412
 20
90.28810626412323
 30
0.0
 10
35.84502380264738
 20
90.22527557386525
 30
0.0
  0
SPLINE
  5
2A2
330
264
100
AcDbEntity
  8
0
  6
Continuous
 62
     0
370
    30
100
AcDbSpline
210
0.0
220
0.0
230
1.0
 70
     8
 71
     3
 72
    24
 73
    20
 74
     0
 42
0.000000001
 43
0.0
 40
0.0
 40
0.0
 40
0.0
 40
0.0
 40
0.8925845421182697
 40
2.496298433987651
 40
6.15551916747015
 40
10.6959893601705
 40
14.37870808451622
 40
16.20936074396367
 40
17.44163351332817
 40
18.73700477734712
 40
19.60030554440737
 40
22.01129747895933
 40
22.89927785282425
 40
23.34325693790463
 40
24.00922663632885
 40
24.60375280280251
 40
24.9762965472885
 40
25.34885387962893
 40
25.72142798745493
 40
25.72142798745493
 40
25.72142798745493
 40
25.72142798745493
 10
31.53188625921364
 20
103.9858070073431
 30
0.0
 10
31.4051015619598
 20
103.9126078196106
 30
0.0
 10
31.06097896169211
 20
103.6895747804076
 30
0.0
 10
30.29127185632895
 20
103.0177976060443
 30
0.0
 10
29.36185855492554
 20
101.570761221741
 30
0.0
 10
28.85374908013588
 20
99.25373372939728
 30
0.0
 10
28.95844673512651
 20
96.97084122522605
 30
0.0
 10
29.2625361635119
 20
95.35932354943712
 30
0.0
 10
29.54002214429212
 20
94.30217949297261
 30
0.0
 10
29.80640725013357
 20
93.47498511132994
 30
0.0
 10
30.22118038607847
 20
92.361686260985
 30
0.0
 10
30.67376440477841
 20
91.35596355450176
 30
0.0
 10
31.14127907669072
 20
90.47497514578626
 30
0.0
 10
31.40320072373331
 20
90.0110085966689
 30
0.0
 10
31.63514887283321
 20
89.62003927087301
 30
0.0
 10
31.86642545960471
 20
89.25165795934015
 30
0.0
 10
32.06109408280754
 20
88.95321223675391
 30
0.0
 10
32.2280846201789
 20
88.70838859422047
 30
0.0
 10
32.33844202717069
 20
88.54379926276789
 30
0.0
 10
32.39706642402014
 20
88.4651718624356
 30
0.0
  0
LINE
  5
2A3
330
264
100
AcDbEntity
  8
0
  6
Continuous
 62
     0
370
    30
100
AcDbLine
 10
32.92356
 20
88.34985
 30
0.0
 11
35.647439
 21
89.922482
 31
0.0
  0
LINE
  5
2A4
330
264
100
AcDbEntity
  8
0
  6
Continuous
 62
     0
370
    30
100
AcDbLine
 10
57.248605
 20
130.380367
 30
0.0
 11
54.985863
 21
129.073973
 31
0.0
  0
LINE
  5
2A5
330
264
100
AcDbEntity
  8
0
  6
Continuous
 62
     0
370
    30
100
AcDbLine
 10
79.248606
 20
92.275249
 30
0.0
 11
76.985864
 21
90.968855
 31
0.0
  0
ENDBLK
  5
2A7
330
264
100
AcDbEntity
  8
0
100
AcDbBlockEnd
  0
ENDSEC
  0
SECTION
  2
ENTITIES
  0
INSERT
  5
1AF
330
1F
100
AcDbEntity
  8
0
  6
Continuous
 62
     7
370
     0
100
AcDbBlockReference
  2
FORMAT
 10
0.0
 20
0.0
 30
0.0
  0
INSERT
  5
1FE
330
1F
100
AcDbEntity
  8
0
  6
Continuous
 62
     7
370
     0
100
AcDbBlockReference
  2
a
 10
94.583221
 20
62.05365
 30
0.0
  0
INSERT
  5
227
330
1F
100
AcDbEntity
  8
0
  6
Continuous
 62
     7
370
     0
100
AcDbBlockReference
  2
b
 10
94.583214
 20
109.812576
 30
0.0
  0
INSERT
  5
263
330
1F
100
AcDbEntity
  8
0
  6
Continuous
 62
     7
370
     0
100
AcDbBlockReference
  2
c
 10
95.125397
 20
72.561249
 30
0.0
  0
INSERT
  5
2A8
330
1F
100
AcDbEntity
  8
0
  6
Continuous
 62
     7
370
     0
100
AcDbBlockReference
  2
d
 10
-121.500744
 20
69.694237
 30
0.0
  0
IMAGE
  5
2AB
330
1F
100
AcDbEntity
  8
0
 92
        8
310
0800000000000000
100
AcDbRasterImage
 90
        0
 10
27.66062
 20
77.70755
 30
0.0
 11
0.05590422451496124
 21
0.0
 31
0.0
 12
0.0
 22
0.06030647975066664
 32
0.0
 13
1024.0
 23
1024.0
340
2AA
 70
     7
280
     0
281
    50
282
    50
283
     0
360
2AD
 71
     1
 91
        2
 14
-0.5
 24
-0.5
 14
1023.5
 24
1023.5
  0
ENDSEC
  0
SECTION
  2
OBJECTS
  0
DICTIONARY
  5
C
330
0
100
AcDbDictionary
281
     1
  3
ACAD_GROUP
350
D
  3
ACAD_IMAGE_DICT
350
2A9
  3
ACAD_IMAGE_VARS
350
2AC
  3
ACAD_LAYOUT
350
1A
  3
ACAD_MATERIAL
350
43
  3
ACAD_MLEADERSTYLE
350
6B
  3
ACAD_MLINESTYLE
350
17
  3
ACAD_PLOTSETTINGS
350
19
  3
ACAD_PLOTSTYLENAME
350
E
  3
ACAD_SCALELIST
350
47
  3
ACAD_TABLESTYLE
350
69
  3
ACAD_VISUALSTYLE
350
2A
  3
ACDB_RECOMPOSE_DATA
350
306
  3
AcDbVariableDictionary
350
2AE
  0
DICTIONARY
  5
2C9
330
8
100
AcDbDictionary
280
     1
281
     1
  3
ACAD_XREC_ROUNDTRIP
360
2CA
  0
DICTIONARY
  5
2B9
330
C5
100
AcDbDictionary
280
     1
281
     1
  3
ACAD_MTEXT_RT
360
2BA
  0
DICTIONARY
  5
2BB
330
C6
100
AcDbDictionary
280
     1
281
     1
  3
ACAD_MTEXT_RT
360
2BC
  0
DICTIONARY
  5
2BD
330
124
100
AcDbDictionary
280
     1
281
     1
  3
ACAD_MTEXT_RT
360
2BE
  0
DICTIONARY
  5
2BF
330
125
100
AcDbDictionary
280
     1
281
     1
  3
ACAD_MTEXT_RT
360
2C0
  0
DICTIONARY
  5
2C1
330
127
100
AcDbDictionary
280
     1
281
     1
  3
ACAD_MTEXT_RT
360
2C2
  0
DICTIONARY
  5
2C3
330
128
100
AcDbDictionary
280
     1
281
     1
  3
ACAD_MTEXT_RT
360
2C4
  0
DICTIONARY
  5
2C5
330
135
100
AcDbDictionary
280
     1
281
     1
  3
ACAD_MTEXT_RT
360
2C6
  0
DICTIONARY
  5
2C7
330
136
100
AcDbDictionary
280
     1
281
     1
  3
ACAD_MTEXT_RT
360
2C8
  0
IMAGEDEF_REACTOR
  5
2AD
330
2AB
100
AcDbRasterImageDefReactor
 90
        2
330
2AB
  0
DICTIONARY
  5
D
102
{ACAD_REACTORS
330
C
102
}
330
C
100
AcDbDictionary
281
     1
  0
DICTIONARY
  5
2A9
102
{ACAD_REACTORS
330
C
102
}
330
C
100
AcDbDictionary
281
     1
  3
\\giotto\utec\DOCUMENTI PORTALE\HELM\COMPLETAMENTI ACCIAIO\E2\Z937941.jpg
350
2AA
  0
RASTERVARIABLES
  5
2AC
102
{ACAD_REACTORS
330
C
102
}
330
C
100
AcDbRasterVariables
 90
        0
 70
     0
 71
     1
 72
     1
  0
DICTIONARY
  5
1A
102
{ACAD_REACTORS
330
C
102
}
330
C
100
AcDbDictionary
281
     1
  3
Layout1
350
1E
  3
Layout2
350
26
  3
Model
350
22
  0
DICTIONARY
  5
43
102
{ACAD_REACTORS
330
C
102
}
330
C
100
AcDbDictionary
281
     1
  3
ByBlock
350
45
  3
ByLayer
350
44
  3
Global
350
46
  0
DICTIONARY
  5
6B
102
{ACAD_REACTORS
330
C
102
}
330
C
100
AcDbDictionary
281
     1
  3
Standard
350
6C
  0
DICTIONARY
  5
17
102
{ACAD_REACTORS
330
C
102
}
330
C
100
AcDbDictionary
281
     1
  3
Standard
350
18
  0
DICTIONARY
  5
19
102
{ACAD_REACTORS
330
C
102
}
330
C
100
AcDbDictionary
281
     1
  0
ACDBDICTIONARYWDFLT
  5
E
102
{ACAD_REACTORS
330
C
102
}
330
C
100
AcDbDictionary
281
     1
  3
Normal
350
F
100
AcDbDictionaryWithDefault
340
F
  0
DICTIONARY
  5
47
102
{ACAD_REACTORS
330
C
102
}
330
C
100
AcDbDictionary
281
     1
  3
A0
350
48
  3
A1
350
49
  3
A2
350
4A
  3
A3
350
4B
  3
A4
350
4C
  3
A5
350
4D
  3
A6
350
4E
  3
A7
350
4F
  3
A8
350
50
  3
A9
350
51
  3
B0
350
52
  3
B1
350
53
  3
B2
350
54
  3
B3
350
55
  3
B4
350
56
  3
B5
350
57
  3
B6
350
58
  3
B7
350
59
  3
B8
350
5A
  3
B9
350
5B
  3
C0
350
5C
  3
C1
350
5D
  3
C2
350
5E
  3
C3
350
5F
  3
C4
350
60
  3
C5
350
61
  3
C6
350
62
  3
C7
350
63
  3
C8
350
64
  3
C9
350
65
  3
D0
350
66
  3
D1
350
67
  3
D2
350
68
  0
DICTIONARY
  5
69
102
{ACAD_REACTORS
330
C
102
}
330
C
100
AcDbDictionary
281
     1
  3
Standard
350
6A
  0
DICTIONARY
  5
2A
102
{ACAD_REACTORS
330
C
102
}
330
C
100
AcDbDictionary
281
     1
  3
2dWireframe
350
2F
  3
Basic
350
32
  3
Brighten
350
36
  3
ColorChange
350
3A
  3
Conceptual
350
34
  3
Dim
350
35
  3
EdgeColorOff
350
3D
  3
Facepattern
350
39
  3
Flat
350
2B
  3
FlatWithEdges
350
2C
  3
Gouraud
350
2D
  3
GouraudWithEdges
350
2E
  3
Hidden
350
31
  3
JitterOff
350
3B
  3
Linepattern
350
38
  3
OverhangOff
350
3C
  3
Realistic
350
33
  3
Shaded
350
42
  3
Shaded with edges
350
41
  3
Shades of Gray
350
3E
  3
Sketchy
350
3F
  3
Thicken
350
37
  3
Wireframe
350
30
  3
X-Ray
350
40
  0
XRECORD
  5
306
102
{ACAD_REACTORS
330
C
102
}
330
C
100
AcDbXrecord
280
     1
 90
        1
330
C5
330
C6
330
125
330
124
330
128
330
127
330
135
330
136
  0
DICTIONARY
  5
2AE
102
{ACAD_REACTORS
330
C
102
}
330
C
100
AcDbDictionary
281
     1
  3
CANNOSCALE
350
2CB
  3
CENTEREXE
350
2B5
  3
CENTERLTYPEFILE
350
2B6
  3
CMLEADERSTYLE
350
2B0
  3
CTABLESTYLE
350
2AF
  3
DIMASSOC
350
2B7
  3
HIDETEXT
350
2B8
  3
MSLTSCALE
350
2CC
  3
PSOLHEIGHT
350
2B2
  3
PSOLWIDTH
350
2B1
  0
XRECORD
  5
2CA
102
{ACAD_REACTORS
330
2C9
102
}
330
2C9
100
AcDbXrecord
280
     1
102
VTR_0.000_0.000_1.000_1.000_VISUALSTYLE
340
2F
102
VTR_0.000_0.000_1.000_1.000_GRIDDISPLAY
 70
     3
102
VTR_0.000_0.000_1.000_1.000_GRIDMAJOR
 70
     5
102
VTR_0.000_0.000_1.000_1.000_DEFAULTLIGHTING
280
     1
102
VTR_0.000_0.000_1.000_1.000_DEFAULTLIGHTINGTYPE
 70
     1
102
VTR_0.000_0.000_1.000_1.000_BRIGHTNESS
141
0.0
102
VTR_0.000_0.000_1.000_1.000_CONTRAST
142
0.0
  0
XRECORD
  5
2BA
102
{ACAD_REACTORS
330
2B9
102
}
330
2B9
100
AcDbXrecord
280
     1
 40
156327.0
  1
{\W0.88;\p;{\fArial Unicode MS|b0|i0;UFFICIO TECNICO^M}\P\p;{\fArial Unicode MS|b0|i0;}\P}
  0
XRECORD
  5
2BC
102
{ACAD_REACTORS
330
2BB
102
}
330
2BB
100
AcDbXrecord
280
     1
 40
332107.0
  1
{\W0.96;\p;{\fArial|b0|i0;TOLLERANZE  ^M}\P\p;{\fArial|b0|i0;  GENERALI}\P}
  0
XRECORD
  5
2BE
102
{ACAD_REACTORS
330
2BD
102
}
330
2BD
100
AcDbXrecord
280
     1
 40
1345684.0
  1
{\W1.14;\p;{\fArial|b0|i0;  0       30     +/-0.3^M}\P\p;{\fArial|b0|i0;^M}\P\p;{\fArial|b0|i0; 30     100    +/-0.5^M}\P\p;{\fArial|b0|i0;^M}\P\p;{\fArial|b0|i0;100      --      +/-1.5}\P}
  0
XRECORD
  5
2C0
102
{ACAD_REACTORS
330
2BF
102
}
330
2BF
100
AcDbXrecord
280
     1
 40
1344601.0
  1
{\W1.14;\p;{\fArial|b0|i0;  0       30     +/-0.1^M}\P\p;{\fArial|b0|i0;^M}\P\p;{\fArial|b0|i0; 30     100    +/-0.2^M}\P\p;{\fArial|b0|i0;^M}\P\p;{\fArial|b0|i0;100      --      +/-0.3}\P}
  0
XRECORD
  5
2C2
102
{ACAD_REACTORS
330
2C1
102
}
330
2C1
100
AcDbXrecord
280
     1
 40
270643.0
  1
{\W1.18;\p;{\fArial|b0|i0;GREZZO^M}\P\p;{\fArial|b0|i0;ROUGH}\P}
  0
XRECORD
  5
2C4
102
{ACAD_REACTORS
330
2C3
102
}
330
2C3
100
AcDbXrecord
280
     1
 40
298664.0
  1
{\W1.13;\p;{\fArial|b0|i0;LAVORATO^M}\P\p;{\fArial|b0|i0;MACHINED}\P}
  0
XRECORD
  5
2C6
102
{ACAD_REACTORS
330
2C5
102
}
330
2C5
100
AcDbXrecord
280
     1
 40
146133.0
  1
{\W0.89;\p;{\fArial|b0|i0;FILETTATURE^M}\P\p;{\fArial|b0|i0;}\P}
  0
XRECORD
  5
2C8
102
{ACAD_REACTORS
330
2C7
102
}
330
2C7
100
AcDbXrecord
280
     1
 40
2041250.0
  1
{\W1.13;\p;{\fArial|b0|i0;                     M      F^M}\P\p;{\fArial|b0|i0;^M}\P\p;{\fArial|b0|i0;Metric          6H     6g^M}\P\p;{\fArial|b0|i0;^M}\P\p;{\fArial|b0|i0;GAS              A       A^M}\P\p;{\fArial|b0|i0;^M}\P\p;{\fArial|b0|i0;}\P}
  0
IMAGEDEF
  5
2AA
102
{ACAD_REACTORS
330
2A9
330
2AD
102
}
330
2A9
100
AcDbRasterImageDef
 90
        0
  1
\\giotto\utec\DOCUMENTI PORTALE\HELM\COMPLETAMENTI ACCIAIO\E2\Z937941.jpg
 10
1024.0
 20
1024.0
 11
0.0009765625
 21
0.0009765625
280
     1
281
     3
  0
LAYOUT
  5
1E
102
{ACAD_REACTORS
330
1A
102
}
330
1A
100
AcDbPlotSettings
  1

  2
none_device
  4

  6

 40
0.0
 41
0.0
 42
0.0
 43
0.0
 44
0.0
 45
0.0
 46
0.0
 47
0.0
 48
0.0
 49
0.0
140
0.0
141
0.0
142
1.0
143
1.0
 70
   688
 72
     1
 73
     0
 74
     5
  7

 75
    16
147
1.0
148
0.0
149
0.0
100
AcDbLayout
  1
Layout1
 70
     1
 71
     1
 10
0.0
 20
0.0
 11
420.0
 21
297.0
 12
0.0
 22
0.0
 32
0.0
 14
1.000000E+20
 24
1.000000E+20
 34
1.000000E+20
 15
-1.000000E+20
 25
-1.000000E+20
 35
-1.000000E+20
146
0.0
 13
0.0
 23
0.0
 33
0.0
 16
1.0
 26
0.0
 36
0.0
 17
0.0
 27
1.0
 37
0.0
 76
     0
330
1B
  0
LAYOUT
  5
26
102
{ACAD_REACTORS
330
1A
102
}
330
1A
100
AcDbPlotSettings
  1

  2
none_device
  4

  6

 40
0.0
 41
0.0
 42
0.0
 43
0.0
 44
0.0
 45
0.0
 46
0.0
 47
0.0
 48
0.0
 49
0.0
140
0.0
141
0.0
142
1.0
143
1.0
 70
   688
 72
     1
 73
     0
 74
     5
  7

 75
    16
147
1.0
148
0.0
149
0.0
100
AcDbLayout
  1
Layout2
 70
     1
 71
     2
 10
0.0
 20
0.0
 11
0.0
 21
0.0
 12
0.0
 22
0.0
 32
0.0
 14
0.0
 24
0.0
 34
0.0
 15
0.0
 25
0.0
 35
0.0
146
0.0
 13
0.0
 23
0.0
 33
0.0
 16
1.0
 26
0.0
 36
0.0
 17
0.0
 27
1.0
 37
0.0
 76
     0
330
23
  0
LAYOUT
  5
22
102
{ACAD_REACTORS
330
1A
102
}
330
1A
100
AcDbPlotSettings
  1

  2
none_device
  4
Letter_(8.50_x_11.00_Inches)
  6

 40
6.35
 41
6.35
 42
6.350005
 43
6.350005
 44
215.9
 45
279.4
 46
0.0
 47
0.0
 48
0.0
 49
0.0
140
0.0
141
0.0
142
1.0
143
1.0
 70
  1712
 72
     1
 73
     0
 74
     0
  7

 75
     0
147
1.0
148
0.0
149
0.0
100
AcDbLayout
  1
Model
 70
     1
 71
     0
 10
0.0
 20
-0.847858
 11
210.0
 21
297.837128
 12
0.0
 22
0.0
 32
0.0
 14
0.0
 24
-0.847858
 34
0.0
 15
210.0
 25
297.837128
 35
0.0
146
0.0
 13
0.0
 23
0.0
 33
0.0
 16
1.0
 26
0.0
 36
0.0
 17
0.0
 27
1.0
 37
0.0
 76
     0
330
1F
331
29
  0
MATERIAL
  5
45
102
{ACAD_REACTORS
330
43
102
}
102
{ACAD_XDICTIONARY
360
2FF
102
}
330
43
100
AcDbMaterial
  1
ByBlock
  0
MATERIAL
  5
44
102
{ACAD_REACTORS
330
43
102
}
102
{ACAD_XDICTIONARY
360
2FD
102
}
330
43
100
AcDbMaterial
  1
ByLayer
  0
MATERIAL
  5
46
102
{ACAD_REACTORS
330
43
102
}
102
{ACAD_XDICTIONARY
360
301
102
}
330
43
100
AcDbMaterial
  1
Global
  0
MLEADERSTYLE
  5
6C
102
{ACAD_REACTORS
330
6B
102
}
102
{ACAD_XDICTIONARY
360
304
102
}
330
6B
100
AcDbMLeaderStyle
170
     2
171
     1
172
     0
 90
        2
 40
0.0
 41
0.0
173
     1
 91
-1056964608
340
14
 92
       -2
290
     1
 42
2.0
291
     1
 43
8.0
  3
Standard
341
0
 44
4.0
300

342
11
174
     1
178
     6
175
     1
176
     0
 93
-1056964608
 45
4.0
292
     0
297
     0
 46
4.0
343
0
 94
-1056964608
 47
1.0
 49
1.0
140
1.0
293
     1
141
0.0
294
     1
177
     0
142
1.0
295
     0
296
     0
143
3.75
1001
ACAD_MLEADERVER
1070
     2
  0
MLINESTYLE
  5
18
102
{ACAD_REACTORS
330
17
102
}
330
17
100
AcDbMlineStyle
  2
Standard
 70
     0
  3

 62
   256
 51
90.0
 52
90.0
 71
     2
 49
0.5
 62
   256
  6
BYLAYER
 49
-0.5
 62
   256
  6
BYLAYER
  0
ACDBPLACEHOLDER
  5
F
102
{ACAD_REACTORS
330
E
102
}
330
E
  0
SCALE
  5
48
102
{ACAD_REACTORS
330
47
102
}
330
47
100
AcDbScale
 70
     0
300
1:1
140
1.0
141
1.0
290
     1
  0
SCALE
  5
49
102
{ACAD_REACTORS
330
47
102
}
330
47
100
AcDbScale
 70
     0
300
1:2
140
1.0
141
2.0
290
     0
  0
SCALE
  5
4A
102
{ACAD_REACTORS
330
47
102
}
330
47
100
AcDbScale
 70
     0
300
1:4
140
1.0
141
4.0
290
     0
  0
SCALE
  5
4B
102
{ACAD_REACTORS
330
47
102
}
330
47
100
AcDbScale
 70
     0
300
1:5
140
1.0
141
5.0
290
     0
  0
SCALE
  5
4C
102
{ACAD_REACTORS
330
47
102
}
330
47
100
AcDbScale
 70
     0
300
1:8
140
1.0
141
8.0
290
     0
  0
SCALE
  5
4D
102
{ACAD_REACTORS
330
47
102
}
330
47
100
AcDbScale
 70
     0
300
1:10
140
1.0
141
10.0
290
     0
  0
SCALE
  5
4E
102
{ACAD_REACTORS
330
47
102
}
330
47
100
AcDbScale
 70
     0
300
1:16
140
1.0
141
16.0
290
     0
  0
SCALE
  5
4F
102
{ACAD_REACTORS
330
47
102
}
330
47
100
AcDbScale
 70
     0
300
1:20
140
1.0
141
20.0
290
     0
  0
SCALE
  5
50
102
{ACAD_REACTORS
330
47
102
}
330
47
100
AcDbScale
 70
     0
300
1:30
140
1.0
141
30.0
290
     0
  0
SCALE
  5
51
102
{ACAD_REACTORS
330
47
102
}
330
47
100
AcDbScale
 70
     0
300
1:40
140
1.0
141
40.0
290
     0
  0
SCALE
  5
52
102
{ACAD_REACTORS
330
47
102
}
330
47
100
AcDbScale
 70
     0
300
1:50
140
1.0
141
50.0
290
     0
  0
SCALE
  5
53
102
{ACAD_REACTORS
330
47
102
}
330
47
100
AcDbScale
 70
     0
300
1:100
140
1.0
141
100.0
290
     0
  0
SCALE
  5
54
102
{ACAD_REACTORS
330
47
102
}
330
47
100
AcDbScale
 70
     0
300
2:1
140
2.0
141
1.0
290
     0
  0
SCALE
  5
55
102
{ACAD_REACTORS
330
47
102
}
330
47
100
AcDbScale
 70
     0
300
4:1
140
4.0
141
1.0
290
     0
  0
SCALE
  5
56
102
{ACAD_REACTORS
330
47
102
}
330
47
100
AcDbScale
 70
     0
300
8:1
140
8.0
141
1.0
290
     0
  0
SCALE
  5
57
102
{ACAD_REACTORS
330
47
102
}
330
47
100
AcDbScale
 70
     0
300
10:1
140
10.0
141
1.0
290
     0
  0
SCALE
  5
58
102
{ACAD_REACTORS
330
47
102
}
330
47
100
AcDbScale
 70
     0
300
100:1
140
100.0
141
1.0
290
     0
  0
SCALE
  5
59
102
{ACAD_REACTORS
330
47
102
}
330
47
100
AcDbScale
 70
     0
300
1/128" = 1'-0"
140
0.007812
141
12.0
290
     0
  0
SCALE
  5
5A
102
{ACAD_REACTORS
330
47
102
}
330
47
100
AcDbScale
 70
     0
300
1/64" = 1'-0"
140
0.015625
141
12.0
290
     0
  0
SCALE
  5
5B
102
{ACAD_REACTORS
330
47
102
}
330
47
100
AcDbScale
 70
     0
300
1/32" = 1'-0"
140
0.03125
141
12.0
290
     0
  0
SCALE
  5
5C
102
{ACAD_REACTORS
330
47
102
}
330
47
100
AcDbScale
 70
     0
300
1/16" = 1'-0"
140
0.0625
141
12.0
290
     0
  0
SCALE
  5
5D
102
{ACAD_REACTORS
330
47
102
}
330
47
100
AcDbScale
 70
     0
300
3/32" = 1'-0"
140
0.09375
141
12.0
290
     0
  0
SCALE
  5
5E
102
{ACAD_REACTORS
330
47
102
}
330
47
100
AcDbScale
 70
     0
300
1/8" = 1'-0"
140
0.125
141
12.0
290
     0
  0
SCALE
  5
5F
102
{ACAD_REACTORS
330
47
102
}
330
47
100
AcDbScale
 70
     0
300
3/16" = 1'-0"
140
0.1875
141
12.0
290
     0
  0
SCALE
  5
60
102
{ACAD_REACTORS
330
47
102
}
330
47
100
AcDbScale
 70
     0
300
1/4" = 1'-0"
140
0.25
141
12.0
290
     0
  0
SCALE
  5
61
102
{ACAD_REACTORS
330
47
102
}
330
47
100
AcDbScale
 70
     0
300
3/8" = 1'-0"
140
0.375
141
12.0
290
     0
  0
SCALE
  5
62
102
{ACAD_REACTORS
330
47
102
}
330
47
100
AcDbScale
 70
     0
300
1/2" = 1'-0"
140
0.5
141
12.0
290
     0
  0
SCALE
  5
63
102
{ACAD_REACTORS
330
47
102
}
330
47
100
AcDbScale
 70
     0
300
3/4" = 1'-0"
140
0.75
141
12.0
290
     0
  0
SCALE
  5
64
102
{ACAD_REACTORS
330
47
102
}
330
47
100
AcDbScale
 70
     0
300
1" = 1'-0"
140
1.0
141
12.0
290
     0
  0
SCALE
  5
65
102
{ACAD_REACTORS
330
47
102
}
330
47
100
AcDbScale
 70
     0
300
1-1/2" = 1'-0"
140
1.5
141
12.0
290
     0
  0
SCALE
  5
66
102
{ACAD_REACTORS
330
47
102
}
330
47
100
AcDbScale
 70
     0
300
3" = 1'-0"
140
3.0
141
12.0
290
     0
  0
SCALE
  5
67
102
{ACAD_REACTORS
330
47
102
}
330
47
100
AcDbScale
 70
     0
300
6" = 1'-0"
140
6.0
141
12.0
290
     0
  0
SCALE
  5
68
102
{ACAD_REACTORS
330
47
102
}
330
47
100
AcDbScale
 70
     0
300
1'-0" = 1'-0"
140
12.0
141
12.0
290
     0
  0
TABLESTYLE
  5
6A
102
{ACAD_REACTORS
330
69
102
}
330
69
100
AcDbTableStyle
  3
Standard
 70
     0
 71
     0
 40
1.5
 41
1.5
280
     0
281
     0
  7
Standard
140
4.5
170
     2
 62
     0
 63
   257
283
     0
274
    -2
284
     1
 64
     0
275
    -2
285
     1
 65
     0
276
    -2
286
     1
 66
     0
277
    -2
287
     1
 67
     0
278
    -2
288
     1
 68
     0
279
    -2
289
     1
 69
     0
  7
Standard
140
6.0
170
     5
 62
     0
 63
   257
283
     0
274
    -2
284
     1
 64
     0
275
    -2
285
     1
 65
     0
276
    -2
286
     1
 66
     0
277
    -2
287
     1
 67
     0
278
    -2
288
     1
 68
     0
279
    -2
289
     1
 69
     0
  7
Standard
140
4.5
170
     5
 62
     0
 63
   257
283
     0
274
    -2
284
     1
 64
     0
275
    -2
285
     1
 65
     0
276
    -2
286
     1
 66
     0
277
    -2
287
     1
 67
     0
278
    -2
288
     1
 68
     0
279
    -2
289
     1
 69
     0
  0
VISUALSTYLE
  5
2F
102
{ACAD_REACTORS
330
2A
102
}
102
{ACAD_XDICTIONARY
360
2D5
102
}
330
2A
100
AcDbVisualStyle
  2
2dWireframe
 70
     4
 71
     0
 72
     2
 73
     0
 90
        0
 40
0.6
 41
30.0
 62
     5
 63
     7
 74
     1
 91
        4
 64
     7
 65
   257
 75
     1
175
     1
 42
1.0
 92
        0
 66
   257
 43
1.0
 76
     1
 77
     6
 78
     2
 67
     7
 79
     5
170
     0
171
     0
290
     0
174
     0
 93
        1
 44
0.0
173
     0
291
     0
 45
0.0
1001
ACAD
1000
AcDbSavedByObjectVersion
1070
     0
  0
VISUALSTYLE
  5
32
102
{ACAD_REACTORS
330
2A
102
}
102
{ACAD_XDICTIONARY
360
2DB
102
}
330
2A
100
AcDbVisualStyle
  2
Basic
 70
     7
 71
     1
 72
     0
 73
     1
 90
        0
 40
0.6
 41
30.0
 62
     5
 63
     7
 74
     0
 91
        4
 64
     7
 65
   257
 75
     1
175
     1
 42
1.0
 92
        8
 66
     7
 43
1.0
 76
     1
 77
     6
 78
     2
 67
     7
 79
     5
170
     0
171
     0
290
     0
174
     0
 93
        1
 44
0.0
173
     0
291
     1
 45
0.0
1001
ACAD
1000
AcDbSavedByObjectVersion
1070
     0
  0
VISUALSTYLE
  5
36
102
{ACAD_REACTORS
330
2A
102
}
102
{ACAD_XDICTIONARY
360
2E3
102
}
330
2A
100
AcDbVisualStyle
  2
Brighten
 70
    12
 71
     2
 72
     2
 73
     0
 90
        0
 40
0.6
 41
30.0
 62
     5
 63
     7
 74
     1
 91
        4
 64
     7
 65
   257
 75
     1
175
     1
 42
1.0
 92
        8
 66
     7
 43
1.0
 76
     1
 77
     6
 78
     2
 67
     7
 79
     5
170
     0
171
     0
290
     0
174
     0
 93
        1
 44
50.0
173
     0
291
     1
 45
0.0
1001
ACAD
1000
AcDbSavedByObjectVersion
1070
     0
  0
VISUALSTYLE
  5
3A
102
{ACAD_REACTORS
330
2A
102
}
102
{ACAD_XDICTIONARY
360
2EB
102
}
330
2A
100
AcDbVisualStyle
  2
ColorChange
 70
    16
 71
     2
 72
     2
 73
     3
 90
        0
 40
0.6
 41
30.0
 62
     5
 63
     8
 74
     1
 91
        4
 64
     7
 65
   257
 75
     1
175
     1
 42
1.0
 92
        8
 66
     8
 43
1.0
 76
     1
 77
     6
 78
     2
 67
     7
 79
     5
170
     0
171
     0
290
     0
174
     0
 93
        1
 44
0.0
173
     0
291
     1
 45
0.0
1001
ACAD
1000
AcDbSavedByObjectVersion
1070
     0
  0
VISUALSTYLE
  5
34
102
{ACAD_REACTORS
330
2A
102
}
102
{ACAD_XDICTIONARY
360
2DF
102
}
330
2A
100
AcDbVisualStyle
  2
Conceptual
 70
     9
 71
     3
 72
     2
 73
     0
 90
        0
 40
0.6
 41
30.0
 62
     5
 63
     7
 74
     2
 91
        2
 64
     7
 65
   257
 75
     1
175
     1
 42
179.0
 92
        8
 66
     7
 43
1.0
 76
     1
 77
     6
 78
     2
 67
     7
 79
     3
170
     0
171
     0
290
     0
174
     0
 93
        1
 44
0.0
173
     0
291
     0
 45
0.0
1001
ACAD
1000
AcDbSavedByObjectVersion
1070
     0
  0
VISUALSTYLE
  5
35
102
{ACAD_REACTORS
330
2A
102
}
102
{ACAD_XDICTIONARY
360
2E1
102
}
330
2A
100
AcDbVisualStyle
  2
Dim
 70
    11
 71
     2
 72
     2
 73
     0
 90
        0
 40
0.6
 41
30.0
 62
     5
 63
     7
 74
     1
 91
        4
 64
     7
 65
   257
 75
     1
175
     1
 42
1.0
 92
        8
 66
     7
 43
1.0
 76
     1
 77
     6
 78
     2
 67
     7
 79
     5
170
     0
171
     0
290
     0
174
     0
 93
        1
 44
-50.0
173
     0
291
     1
 45
0.0
1001
ACAD
1000
AcDbSavedByObjectVersion
1070
     0
  0
VISUALSTYLE
  5
3D
102
{ACAD_REACTORS
330
2A
102
}
102
{ACAD_XDICTIONARY
360
2F1
102
}
330
2A
100
AcDbVisualStyle
  2
EdgeColorOff
 70
    22
 71
     2
 72
     2
 73
     0
 90
        0
 40
0.6
 41
30.0
 62
     5
 63
     7
 74
     1
 91
        4
 64
     7
 65
   257
 75
     1
175
     1
 42
1.0
 92
        8
 66
     7
 43
1.0
 76
     1
 77
     6
 78
     2
 67
     7
 79
     5
170
     0
171
     0
290
     0
174
     0
 93
        1
 44
0.0
173
     0
291
     1
 45
0.0
1001
ACAD
1000
AcDbSavedByObjectVersion
1070
     0
  0
VISUALSTYLE
  5
39
102
{ACAD_REACTORS
330
2A
102
}
102
{ACAD_XDICTIONARY
360
2E9
102
}
330
2A
100
AcDbVisualStyle
  2
Facepattern
 70
    15
 71
     2
 72
     2
 73
     0
 90
        0
 40
0.6
 41
30.0
 62
     5
 63
     7
 74
     1
 91
        4
 64
     7
 65
   257
 75
     1
175
     1
 42
1.0
 92
        8
 66
     7
 43
1.0
 76
     1
 77
     6
 78
     2
 67
     7
 79
     5
170
     0
171
     0
290
     0
174
     0
 93
        1
 44
0.0
173
     0
291
     1
 45
0.0
1001
ACAD
1000
AcDbSavedByObjectVersion
1070
     0
  0
VISUALSTYLE
  5
2B
102
{ACAD_REACTORS
330
2A
102
}
102
{ACAD_XDICTIONARY
360
2CD
102
}
330
2A
100
AcDbVisualStyle
  2
Flat
 70
     0
 71
     2
 72
     1
 73
     1
 90
        2
 40
0.6
 41
30.0
 62
     5
 63
     7
 74
     0
 91
        0
 64
     7
 65
   257
 75
     1
175
     1
 42
1.0
 92
        8
 66
     7
 43
1.0
 76
     1
 77
     6
 78
     2
 67
     7
 79
     5
170
     0
171
     0
290
     0
174
     0
 93
       13
 44
0.0
173
     0
291
     1
 45
0.0
1001
ACAD
1000
AcDbSavedByObjectVersion
1070
     0
  0
VISUALSTYLE
  5
2C
102
{ACAD_REACTORS
330
2A
102
}
102
{ACAD_XDICTIONARY
360
2CF
102
}
330
2A
100
AcDbVisualStyle
  2
FlatWithEdges
 70
     1
 71
     2
 72
     1
 73
     1
 90
        2
 40
0.6
 41
30.0
 62
     5
 63
     7
 74
     1
 91
        0
 64
     7
 65
   257
 75
     1
175
     1
 42
1.0
 92
        0
 66
   257
 43
1.0
 76
     1
 77
     6
 78
     2
 67
     7
 79
     5
170
     0
171
     0
290
     0
174
     0
 93
       13
 44
0.0
173
     0
291
     1
 45
0.0
1001
ACAD
1000
AcDbSavedByObjectVersion
1070
     0
  0
VISUALSTYLE
  5
2D
102
{ACAD_REACTORS
330
2A
102
}
102
{ACAD_XDICTIONARY
360
2D1
102
}
330
2A
100
AcDbVisualStyle
  2
Gouraud
 70
     2
 71
     2
 72
     2
 73
     1
 90
        2
 40
0.6
 41
30.0
 62
     5
 63
     7
 74
     0
 91
        0
 64
     7
 65
   257
 75
     1
175
     1
 42
1.0
 92
        0
 66
     7
 43
1.0
 76
     1
 77
     6
 78
     2
 67
     7
 79
     5
170
     0
171
     0
290
     0
174
     0
 93
       13
 44
0.0
173
     0
291
     1
 45
0.0
1001
ACAD
1000
AcDbSavedByObjectVersion
1070
     0
  0
VISUALSTYLE
  5
2E
102
{ACAD_REACTORS
330
2A
102
}
102
{ACAD_XDICTIONARY
360
2D3
102
}
330
2A
100
AcDbVisualStyle
  2
GouraudWithEdges
 70
     3
 71
     2
 72
     2
 73
     1
 90
        2
 40
0.6
 41
30.0
 62
     5
 63
     7
 74
     1
 91
        0
 64
     7
 65
   257
 75
     1
175
     1
 42
1.0
 92
        0
 66
   257
 43
1.0
 76
     1
 77
     6
 78
     2
 67
     7
 79
     5
170
     0
171
     0
290
     0
174
     0
 93
       13
 44
0.0
173
     0
291
     1
 45
0.0
1001
ACAD
1000
AcDbSavedByObjectVersion
1070
     0
  0
VISUALSTYLE
  5
31
102
{ACAD_REACTORS
330
2A
102
}
102
{ACAD_XDICTIONARY
360
2D9
102
}
330
2A
100
AcDbVisualStyle
  2
Hidden
 70
     6
 71
     1
 72
     2
 73
     2
 90
        0
 40
0.6
 41
30.0
 62
     5
 63
     7
 74
     2
 91
        2
 64
     7
 65
   257
 75
     2
175
     1
 42
40.0
 92
        0
 66
   257
 43
1.0
 76
     1
 77
     6
 78
     2
 67
     7
 79
     3
170
     0
171
     0
290
     0
174
     0
 93
        1
 44
0.0
173
     0
291
     0
 45
0.0
1001
ACAD
1000
AcDbSavedByObjectVersion
1070
     0
  0
VISUALSTYLE
  5
3B
102
{ACAD_REACTORS
330
2A
102
}
102
{ACAD_XDICTIONARY
360
2ED
102
}
330
2A
100
AcDbVisualStyle
  2
JitterOff
 70
    20
 71
     2
 72
     2
 73
     0
 90
        0
 40
0.6
 41
30.0
 62
     5
 63
     7
 74
     1
 91
        4
 64
     7
 65
   257
 75
     1
175
     1
 42
1.0
 92
       10
 66
     7
 43
1.0
 76
     1
 77
     6
 78
     2
 67
     7
 79
     5
170
     0
171
     0
290
     0
174
     0
 93
        1
 44
0.0
173
     0
291
     1
 45
0.0
1001
ACAD
1000
AcDbSavedByObjectVersion
1070
     0
  0
VISUALSTYLE
  5
38
102
{ACAD_REACTORS
330
2A
102
}
102
{ACAD_XDICTIONARY
360
2E7
102
}
330
2A
100
AcDbVisualStyle
  2
Linepattern
 70
    14
 71
     2
 72
     2
 73
     0
 90
        0
 40
0.6
 41
30.0
 62
     5
 63
     7
 74
     1
 91
        4
 64
     7
 65
   257
 75
     7
175
     7
 42
1.0
 92
        8
 66
     7
 43
1.0
 76
     1
 77
     6
 78
     2
 67
     7
 79
     5
170
     0
171
     0
290
     0
174
     0
 93
        1
 44
0.0
173
     0
291
     1
 45
0.0
1001
ACAD
1000
AcDbSavedByObjectVersion
1070
     0
  0
VISUALSTYLE
  5
3C
102
{ACAD_REACTORS
330
2A
102
}
102
{ACAD_XDICTIONARY
360
2EF
102
}
330
2A
100
AcDbVisualStyle
  2
OverhangOff
 70
    21
 71
     2
 72
     2
 73
     0
 90
        0
 40
0.6
 41
30.0
 62
     5
 63
     7
 74
     1
 91
        4
 64
     7
 65
   257
 75
     1
175
     1
 42
1.0
 92
        9
 66
     7
 43
1.0
 76
     1
 77
     6
 78
     2
 67
     7
 79
     5
170
     0
171
     0
290
     0
174
     0
 93
        1
 44
0.0
173
     0
291
     1
 45
0.0
1001
ACAD
1000
AcDbSavedByObjectVersion
1070
     0
  0
VISUALSTYLE
  5
33
102
{ACAD_REACTORS
330
2A
102
}
102
{ACAD_XDICTIONARY
360
2DD
102
}
330
2A
100
AcDbVisualStyle
  2
Realistic
 70
     8
 71
     2
 72
     3
 73
     0
 90
        2
 40
0.6
 41
30.0
 62
     5
 63
     7
 74
     0
 91
        0
 64
     7
 65
   257
 75
     1
175
     1
 42
1.0
 92
        8
 66
   257
 43
1.0
 76
     1
 77
     6
 78
     2
 67
     7
 79
     3
170
     0
171
     0
290
     0
174
     0
 93
       13
 44
0.0
173
     0
291
     0
 45
0.0
1001
ACAD
1000
AcDbSavedByObjectVersion
1070
     0
  0
VISUALSTYLE
  5
42
102
{ACAD_REACTORS
330
2A
102
}
102
{ACAD_XDICTIONARY
360
2FB
102
}
330
2A
100
AcDbVisualStyle
  2
Shaded
 70
    27
 71
     2
 72
     2
 73
     1
 90
        2
 40
0.6
 41
30.0
 62
     5
 63
     7
 74
     0
 91
        4
 64
     7
 65
   257
 75
     1
175
     1
 42
1.0
 92
        8
 66
   257
 43
1.0
 76
     1
 77
     6
 78
     2
 67
     8
 79
     3
170
     0
171
     0
290
     0
174
     0
 93
        5
 44
0.0
173
     0
291
     0
 45
0.0
1001
ACAD
1000
AcDbSavedByObjectVersion
1070
     0
  0
VISUALSTYLE
  5
41
102
{ACAD_REACTORS
330
2A
102
}
102
{ACAD_XDICTIONARY
360
2F9
102
}
330
2A
100
AcDbVisualStyle
  2
Shaded with edges
 70
    26
 71
     2
 72
     2
 73
     1
 90
        2
 40
0.6
 41
30.0
 62
     5
 63
     7
 74
     1
 91
       10
 64
     7
 65
   257
 75
     2
175
     1
 42
1.0
 92
        8
 66
   257
 43
1.0
 76
     1
 77
     6
 78
     2
 67
     7
 79
     3
170
     0
171
     0
290
     0
174
     0
 93
        5
 44
0.0
173
     0
291
     0
 45
0.0
1001
ACAD
1000
AcDbSavedByObjectVersion
1070
     0
  0
VISUALSTYLE
  5
3E
102
{ACAD_REACTORS
330
2A
102
}
102
{ACAD_XDICTIONARY
360
2F3
102
}
330
2A
100
AcDbVisualStyle
  2
Shades of Gray
 70
    23
 71
     2
 72
     2
 73
     3
 90
        0
 40
0.6
 41
30.0
 62
     5
 63
     7
 74
     2
 91
        2
 64
     7
 65
     7
 75
     1
175
     1
 42
40.0
 92
        8
 66
     7
 43
1.0
 76
     1
 77
     6
 78
     2
 67
     7
 79
     3
170
     0
171
     0
290
     0
174
     0
 93
        1
 44
0.0
173
     0
291
     0
 45
0.0
1001
ACAD
1000
AcDbSavedByObjectVersion
1070
     0
  0
VISUALSTYLE
  5
3F
102
{ACAD_REACTORS
330
2A
102
}
102
{ACAD_XDICTIONARY
360
2F5
102
}
330
2A
100
AcDbVisualStyle
  2
Sketchy
 70
    24
 71
     1
 72
     2
 73
     2
 90
        0
 40
0.6
 41
30.0
 62
     5
 63
     7
 74
     2
 91
        2
 64
     7
 65
     7
 75
     1
175
     1
 42
40.0
 92
       11
 66
     7
 43
1.0
 76
     1
 77
     6
 78
     2
 67
     7
 79
     6
170
     0
171
     0
290
     0
174
     0
 93
        1
 44
0.0
173
     0
291
     0
 45
0.0
1001
ACAD
1000
AcDbSavedByObjectVersion
1070
     0
  0
VISUALSTYLE
  5
37
102
{ACAD_REACTORS
330
2A
102
}
102
{ACAD_XDICTIONARY
360
2E5
102
}
330
2A
100
AcDbVisualStyle
  2
Thicken
 70
    13
 71
     2
 72
     2
 73
     0
 90
        0
 40
0.6
 41
30.0
 62
     5
 63
     7
 74
     1
 91
        4
 64
     7
 65
   257
 75
     1
175
     1
 42
1.0
 92
       12
 66
     7
 43
1.0
 76
     1
 77
     6
 78
     2
 67
     7
 79
     5
170
     0
171
     0
290
     0
174
     0
 93
        1
 44
0.0
173
     0
291
     1
 45
0.0
1001
ACAD
1000
AcDbSavedByObjectVersion
1070
     0
  0
VISUALSTYLE
  5
30
102
{ACAD_REACTORS
330
2A
102
}
102
{ACAD_XDICTIONARY
360
2D7
102
}
330
2A
100
AcDbVisualStyle
  2
Wireframe
 70
     5
 71
     0
 72
     2
 73
     0
 90
        0
 40
0.6
 41
30.0
 62
     5
 63
     7
 74
     1
 91
        4
 64
     7
 65
   257
 75
     1
175
     1
 42
1.0
 92
        0
 66
   257
 43
1.0
 76
     1
 77
     6
 78
     2
 67
     7
 79
     3
170
     0
171
     0
290
     0
174
     0
 93
        1
 44
0.0
173
     0
291
     0
 45
0.0
1001
ACAD
1000
AcDbSavedByObjectVersion
1070
     0
  0
VISUALSTYLE
  5
40
102
{ACAD_REACTORS
330
2A
102
}
102
{ACAD_XDICTIONARY
360
2F7
102
}
330
2A
100
AcDbVisualStyle
  2
X-Ray
 70
    25
 71
     2
 72
     2
 73
     1
 90
        1
 40
0.5
 41
30.0
 62
     5
 63
     7
 74
     1
 91
        0
 64
     7
 65
   257
 75
     1
175
     1
 42
1.0
 92
        8
 66
     7
 43
1.0
 76
     1
 77
     6
 78
     2
 67
     7
 79
     3
170
     0
171
     0
290
     0
174
     0
 93
       13
 44
0.0
173
     0
291
     0
 45
0.0
1001
ACAD
1000
AcDbSavedByObjectVersion
1070
     0
  0
DICTIONARYVAR
  5
2CB
102
{ACAD_REACTORS
330
2AE
102
}
330
2AE
100
DictionaryVariables
280
     0
  1
1:1
  0
DICTIONARYVAR
  5
2B5
102
{ACAD_REACTORS
330
2AE
102
}
330
2AE
100
DictionaryVariables
280
     0
  1
3.500000
  0
DICTIONARYVAR
  5
2B6
102
{ACAD_REACTORS
330
2AE
102
}
330
2AE
100
DictionaryVariables
280
     0
  1
acadiso.lin
  0
DICTIONARYVAR
  5
2B0
102
{ACAD_REACTORS
330
2AE
102
}
330
2AE
100
DictionaryVariables
280
     0
  1
Standard
  0
DICTIONARYVAR
  5
2AF
102
{ACAD_REACTORS
330
2AE
102
}
330
2AE
100
DictionaryVariables
280
     0
  1
Standard
  0
DICTIONARYVAR
  5
2B7
102
{ACAD_REACTORS
330
2AE
102
}
330
2AE
100
DictionaryVariables
280
     0
  1
2
  0
DICTIONARYVAR
  5
2B8
102
{ACAD_REACTORS
330
2AE
102
}
330
2AE
100
DictionaryVariables
280
     0
  1
1
  0
DICTIONARYVAR
  5
2CC
102
{ACAD_REACTORS
330
2AE
102
}
330
2AE
100
DictionaryVariables
280
     0
  1
1
  0
DICTIONARYVAR
  5
2B2
102
{ACAD_REACTORS
330
2AE
102
}
330
2AE
100
DictionaryVariables
280
     0
  1
80.000000
  0
DICTIONARYVAR
  5
2B1
102
{ACAD_REACTORS
330
2AE
102
}
330
2AE
100
DictionaryVariables
280
     0
  1
5.000000
  0
DICTIONARY
  5
2FF
330
45
100
AcDbDictionary
280
     1
281
     1
  3
ACAD_XREC_ROUNDTRIP
360
300
  0
DICTIONARY
  5
2FD
330
44
100
AcDbDictionary
280
     1
281
     1
  3
ACAD_XREC_ROUNDTRIP
360
2FE
  0
DICTIONARY
  5
301
330
46
100
AcDbDictionary
280
     1
281
     1
  3
ACAD_XREC_ROUNDTRIP
360
302
  0
DICTIONARY
  5
304
330
6C
100
AcDbDictionary
280
     1
281
     1
  3
ACAD_XREC_ROUNDTRIP
360
305
  0
DICTIONARY
  5
2D5
330
2F
100
AcDbDictionary
280
     1
281
     1
  3
ACAD_XREC_ROUNDTRIP
360
2D6
  0
DICTIONARY
  5
2DB
330
32
100
AcDbDictionary
280
     1
281
     1
  3
ACAD_XREC_ROUNDTRIP
360
2DC
  0
DICTIONARY
  5
2E3
330
36
100
AcDbDictionary
280
     1
281
     1
  3
ACAD_XREC_ROUNDTRIP
360
2E4
  0
DICTIONARY
  5
2EB
330
3A
100
AcDbDictionary
280
     1
281
     1
  3
ACAD_XREC_ROUNDTRIP
360
2EC
  0
DICTIONARY
  5
2DF
330
34
100
AcDbDictionary
280
     1
281
     1
  3
ACAD_XREC_ROUNDTRIP
360
2E0
  0
DICTIONARY
  5
2E1
330
35
100
AcDbDictionary
280
     1
281
     1
  3
ACAD_XREC_ROUNDTRIP
360
2E2
  0
DICTIONARY
  5
2F1
330
3D
100
AcDbDictionary
280
     1
281
     1
  3
ACAD_XREC_ROUNDTRIP
360
2F2
  0
DICTIONARY
  5
2E9
330
39
100
AcDbDictionary
280
     1
281
     1
  3
ACAD_XREC_ROUNDTRIP
360
2EA
  0
DICTIONARY
  5
2CD
330
2B
100
AcDbDictionary
280
     1
281
     1
  3
ACAD_XREC_ROUNDTRIP
360
2CE
  0
DICTIONARY
  5
2CF
330
2C
100
AcDbDictionary
280
     1
281
     1
  3
ACAD_XREC_ROUNDTRIP
360
2D0
  0
DICTIONARY
  5
2D1
330
2D
100
AcDbDictionary
280
     1
281
     1
  3
ACAD_XREC_ROUNDTRIP
360
2D2
  0
DICTIONARY
  5
2D3
330
2E
100
AcDbDictionary
280
     1
281
     1
  3
ACAD_XREC_ROUNDTRIP
360
2D4
  0
DICTIONARY
  5
2D9
330
31
100
AcDbDictionary
280
     1
281
     1
  3
ACAD_XREC_ROUNDTRIP
360
2DA
  0
DICTIONARY
  5
2ED
330
3B
100
AcDbDictionary
280
     1
281
     1
  3
ACAD_XREC_ROUNDTRIP
360
2EE
  0
DICTIONARY
  5
2E7
330
38
100
AcDbDictionary
280
     1
281
     1
  3
ACAD_XREC_ROUNDTRIP
360
2E8
  0
DICTIONARY
  5
2EF
330
3C
100
AcDbDictionary
280
     1
281
     1
  3
ACAD_XREC_ROUNDTRIP
360
2F0
  0
DICTIONARY
  5
2DD
330
33
100
AcDbDictionary
280
     1
281
     1
  3
ACAD_XREC_ROUNDTRIP
360
2DE
  0
DICTIONARY
  5
2FB
330
42
100
AcDbDictionary
280
     1
281
     1
  3
ACAD_XREC_ROUNDTRIP
360
2FC
  0
DICTIONARY
  5
2F9
330
41
100
AcDbDictionary
280
     1
281
     1
  3
ACAD_XREC_ROUNDTRIP
360
2FA
  0
DICTIONARY
  5
2F3
330
3E
100
AcDbDictionary
280
     1
281
     1
  3
ACAD_XREC_ROUNDTRIP
360
2F4
  0
DICTIONARY
  5
2F5
330
3F
100
AcDbDictionary
280
     1
281
     1
  3
ACAD_XREC_ROUNDTRIP
360
2F6
  0
DICTIONARY
  5
2E5
330
37
100
AcDbDictionary
280
     1
281
     1
  3
ACAD_XREC_ROUNDTRIP
360
2E6
  0
DICTIONARY
  5
2D7
330
30
100
AcDbDictionary
280
     1
281
     1
  3
ACAD_XREC_ROUNDTRIP
360
2D8
  0
DICTIONARY
  5
2F7
330
40
100
AcDbDictionary
280
     1
281
     1
  3
ACAD_XREC_ROUNDTRIP
360
2F8
  0
XRECORD
  5
300
102
{ACAD_REACTORS
330
2FF
102
}
330
2FF
100
AcDbXrecord
280
     1
102
MATERIAL
148
0.0
149
0.0
149
0.0
 93
        0
 94
      127
282
     0
 72
     1
 77
     1
171
     1
175
     1
179
     1
273
     0
  0
XRECORD
  5
2FE
102
{ACAD_REACTORS
330
2FD
102
}
330
2FD
100
AcDbXrecord
280
     1
102
MATERIAL
148
0.0
149
0.0
149
0.0
 93
        0
 94
      127
282
     0
 72
     1
 77
     1
171
     1
175
     1
179
     1
273
     0
  0
XRECORD
  5
302
102
{ACAD_REACTORS
330
301
102
}
330
301
100
AcDbXrecord
280
     1
102
MATERIAL
148
0.0
149
0.0
149
0.0
 93
        0
 94
      127
282
     0
 72
     1
 77
     1
171
     1
175
     1
179
     1
273
     0
  0
XRECORD
  5
305
102
{ACAD_REACTORS
330
304
102
}
330
304
100
AcDbXrecord
280
     1
102
ACAD_ROUNDTRIP_2010_MLEADER_STYLE
  0
XRECORD
  5
2D6
102
{ACAD_REACTORS
330
2D5
102
}
330
2D5
100
AcDbXrecord
280
     1
102
RTVSPropertyOp0
 70
     1
102
RTVSPropertyOp1
 70
     1
102
RTVSPropertyOp2
 70
     1
102
RTVSPropertyOp3
 70
     1
102
RTVSPropertyOp4
 70
     1
102
RTVSPropertyOp5
 70
     1
102
RTVSPropertyOp6
 70
     1
102
RTVSPropertyOp7
 70
     1
102
RTVSPropertyOp8
 70
     1
102
RTVSPropertyOp9
 70
     1
102
RTVSPropertyOp10
 70
     1
102
RTVSPropertyOp11
 70
     1
102
RTVSPropertyOp12
 70
     1
102
RTVSPropertyOp13
 70
     1
102
RTVSPropertyOp14
 70
     1
102
RTVSPropertyOp15
 70
     1
102
RTVSPropertyOp16
 70
     1
102
RTVSPropertyOp17
 70
     1
102
RTVSPropertyOp18
 70
     1
102
RTVSPropertyOp19
 70
     1
102
RTVSPropertyOp20
 70
     1
102
RTVSPropertyOp21
 70
     1
102
RTVSPropertyOp22
 70
     1
102
RTVSPropertyOp23
 70
     1
102
RTVSPropertyOp24
 70
     1
102
RTVSPropertyOp25
 70
     1
102
RTVSPropertyOp26
 70
     1
102
RTVSPropertyOp27
 70
     1
102
RTVSPropertyOp28
 70
     1
102
RTVSPropertyOp29
 70
     1
102
RTVSPropertyOp30
 70
     1
102
RTVSPropertyOp31
 70
     1
102
RTVSPropertyOp32
 70
     1
102
RTVSPropertyOp33
 70
     1
102
RTVSPropertyOp34
 70
     1
102
RTVSPropertyOp35
 70
     1
102
RTVSPropertyOp36
 70
     1
102
RTVSPropertyOp37
 70
     1
102
RTVSPropertyOp38
 70
     1
102
RTVSPropertyOp39
 70
     1
102
RTVSPropertyOp40
 70
     1
102
RTVSPropertyOp41
 70
     1
102
RTVSPropertyOp42
 70
     1
102
RTVSPropertyOp43
 70
     1
102
RTVSPropertyOp44
 70
     1
102
RTVSPropertyOp45
 70
     1
102
RTVSPropertyOp46
 70
     1
102
RTVSPropertyOp47
 70
     1
102
RTVSPropertyOp48
 70
     1
102
RTVSPropertyOp49
 70
     1
102
RTVSPropertyOp50
 70
     1
102
RTVSPropertyOp51
 70
     0
102
RTVSPropertyOp52
 70
     0
102
RTVSPropertyOp53
 70
     1
102
RTVSPropertyOp54
 70
     1
102
RTVSPropertyOp55
 70
     1
102
RTVSPropertyOp56
 70
     1
102
RTVSPropertyOp57
 70
     1
102
RTVSPost2010Prop28
280
     1
102
RTVSPost2010PropOp28
 70
     1
102
RTVSPost2010Prop29
280
     1
102
RTVSPost2010PropOp29
 70
     1
102
RTVSPost2010Prop30
280
     0
102
RTVSPost2010PropOp30
 70
     1
102
RTVSPost2010Prop31
280
     0
102
RTVSPost2010PropOp31
 70
     1
102
RTVSPost2010Prop32
280
     0
102
RTVSPost2010PropOp32
 70
     1
102
RTVSPost2010Prop33
280
     0
102
RTVSPost2010PropOp33
 70
     1
102
RTVSPost2010Prop34
280
     0
102
RTVSPost2010PropOp34
 70
     1
102
RTVSPost2010Prop35
280
     0
102
RTVSPost2010PropOp35
 70
     1
102
RTVSPost2010Prop36
280
     0
102
RTVSPost2010PropOp36
 70
     1
102
RTVSPost2010Prop37
 90
       50
102
RTVSPost2010PropOp37
 70
     1
102
RTVSPost2010Prop38
140
0.0
102
RTVSPost2010PropOp38
 70
     1
102
RTVSPost2010Prop39
140
1.0
102
RTVSPost2010PropOp39
 70
     1
102
RTVSPost2010Prop40
 90
        0
102
RTVSPost2010PropOp40
 70
     1
102
RTVSPost2010Prop41ColorIndex
 90
       18
102
RTVSPost2010Prop41ColorRGB
 90
        0
102
RTVSPost2010PropOp41
 70
     1
102
RTVSPost2010Prop42
 90
       50
102
RTVSPost2010PropOp42
 70
     1
102
RTVSPost2010Prop43
 90
        3
102
RTVSPost2010PropOp43
 70
     1
102
RTVSPost2010Prop44ColorIndex
 90
        5
102
RTVSPost2010Prop44ColorRGB
 90
      255
102
RTVSPost2010PropOp44
 70
     1
102
RTVSPost2010Prop45
280
     0
102
RTVSPost2010PropOp45
 70
     1
102
RTVSPost2010Prop46
 90
       50
102
RTVSPost2010PropOp46
 70
     1
102
RTVSPost2010Prop47
 90
       50
102
RTVSPost2010PropOp47
 70
     1
102
RTVSPost2010Prop48
 90
       50
102
RTVSPost2010PropOp48
 70
     1
102
RTVSPost2010Prop49
280
     0
102
RTVSPost2010PropOp49
 70
     1
102
RTVSPost2010Prop50
 90
       50
102
RTVSPost2010PropOp50
 70
     1
102
RTVSPost2010Prop51ColorIndex
 90
      256
102
RTVSPost2010Prop51ColorRGB
 90
-16777216
102
RTVSPost2010PropOp51
 70
     0
102
RTVSPost2010Prop52
140
1.0
102
RTVSPost2010PropOp52
 70
     0
102
RTVSPost2010Prop53
 90
        2
102
RTVSPost2010PropOp53
 70
     1
102
RTVSPost2010Prop54
  1
strokes_ogs.tif
102
RTVSPost2010PropOp54
 70
     1
102
RTVSPost2010Prop55
280
     0
102
RTVSPost2010PropOp55
 70
     1
102
RTVSPost2010Prop56
140
1.0
102
RTVSPost2010PropOp56
 70
     1
102
RTVSPost2010Prop57
140
1.0
102
RTVSPost2010PropOp57
 70
     1
  0
XRECORD
  5
2DC
102
{ACAD_REACTORS
330
2DB
102
}
330
2DB
100
AcDbXrecord
280
     1
102
RTVSPropertyOp0
 70
     1
102
RTVSPropertyOp1
 70
     1
102
RTVSPropertyOp2
 70
     1
102
RTVSPropertyOp3
 70
     1
102
RTVSPropertyOp4
 70
     1
102
RTVSPropertyOp5
 70
     1
102
RTVSPropertyOp6
 70
     1
102
RTVSPropertyOp7
 70
     1
102
RTVSPropertyOp8
 70
     1
102
RTVSPropertyOp9
 70
     1
102
RTVSPropertyOp10
 70
     1
102
RTVSPropertyOp11
 70
     1
102
RTVSPropertyOp12
 70
     1
102
RTVSPropertyOp13
 70
     1
102
RTVSPropertyOp14
 70
     1
102
RTVSPropertyOp15
 70
     1
102
RTVSPropertyOp16
 70
     1
102
RTVSPropertyOp17
 70
     1
102
RTVSPropertyOp18
 70
     1
102
RTVSPropertyOp19
 70
     1
102
RTVSPropertyOp20
 70
     1
102
RTVSPropertyOp21
 70
     1
102
RTVSPropertyOp22
 70
     1
102
RTVSPropertyOp23
 70
     1
102
RTVSPropertyOp24
 70
     1
102
RTVSPropertyOp25
 70
     1
102
RTVSPropertyOp26
 70
     1
102
RTVSPropertyOp27
 70
     1
102
RTVSPropertyOp28
 70
     1
102
RTVSPropertyOp29
 70
     1
102
RTVSPropertyOp30
 70
     1
102
RTVSPropertyOp31
 70
     1
102
RTVSPropertyOp32
 70
     1
102
RTVSPropertyOp33
 70
     1
102
RTVSPropertyOp34
 70
     1
102
RTVSPropertyOp35
 70
     1
102
RTVSPropertyOp36
 70
     1
102
RTVSPropertyOp37
 70
     1
102
RTVSPropertyOp38
 70
     1
102
RTVSPropertyOp39
 70
     1
102
RTVSPropertyOp40
 70
     1
102
RTVSPropertyOp41
 70
     1
102
RTVSPropertyOp42
 70
     1
102
RTVSPropertyOp43
 70
     1
102
RTVSPropertyOp44
 70
     1
102
RTVSPropertyOp45
 70
     1
102
RTVSPropertyOp46
 70
     1
102
RTVSPropertyOp47
 70
     1
102
RTVSPropertyOp48
 70
     1
102
RTVSPropertyOp49
 70
     1
102
RTVSPropertyOp50
 70
     1
102
RTVSPropertyOp51
 70
     0
102
RTVSPropertyOp52
 70
     0
102
RTVSPropertyOp53
 70
     1
102
RTVSPropertyOp54
 70
     1
102
RTVSPropertyOp55
 70
     1
102
RTVSPropertyOp56
 70
     1
102
RTVSPropertyOp57
 70
     1
102
RTVSPost2010Prop28
280
     0
102
RTVSPost2010PropOp28
 70
     1
102
RTVSPost2010Prop29
280
     1
102
RTVSPost2010PropOp29
 70
     1
102
RTVSPost2010Prop30
280
     1
102
RTVSPost2010PropOp30
 70
     1
102
RTVSPost2010Prop31
280
     0
102
RTVSPost2010PropOp31
 70
     1
102
RTVSPost2010Prop32
280
     0
102
RTVSPost2010PropOp32
 70
     1
102
RTVSPost2010Prop33
280
     0
102
RTVSPost2010PropOp33
 70
     1
102
RTVSPost2010Prop34
280
     0
102
RTVSPost2010PropOp34
 70
     1
102
RTVSPost2010Prop35
280
     0
102
RTVSPost2010PropOp35
 70
     1
102
RTVSPost2010Prop36
280
     0
102
RTVSPost2010PropOp36
 70
     1
102
RTVSPost2010Prop37
 90
       50
102
RTVSPost2010PropOp37
 70
     1
102
RTVSPost2010Prop38
140
0.0
102
RTVSPost2010PropOp38
 70
     1
102
RTVSPost2010Prop39
140
1.0
102
RTVSPost2010PropOp39
 70
     1
102
RTVSPost2010Prop40
 90
        0
102
RTVSPost2010PropOp40
 70
     1
102
RTVSPost2010Prop41ColorIndex
 90
       18
102
RTVSPost2010Prop41ColorRGB
 90
        0
102
RTVSPost2010PropOp41
 70
     1
102
RTVSPost2010Prop42
 90
       50
102
RTVSPost2010PropOp42
 70
     1
102
RTVSPost2010Prop43
 90
        3
102
RTVSPost2010PropOp43
 70
     1
102
RTVSPost2010Prop44ColorIndex
 90
        5
102
RTVSPost2010Prop44ColorRGB
 90
      255
102
RTVSPost2010PropOp44
 70
     1
102
RTVSPost2010Prop45
280
     0
102
RTVSPost2010PropOp45
 70
     1
102
RTVSPost2010Prop46
 90
       50
102
RTVSPost2010PropOp46
 70
     1
102
RTVSPost2010Prop47
 90
       50
102
RTVSPost2010PropOp47
 70
     1
102
RTVSPost2010Prop48
 90
       50
102
RTVSPost2010PropOp48
 70
     1
102
RTVSPost2010Prop49
280
     0
102
RTVSPost2010PropOp49
 70
     1
102
RTVSPost2010Prop50
 90
       50
102
RTVSPost2010PropOp50
 70
     1
102
RTVSPost2010Prop51ColorIndex
 90
      256
102
RTVSPost2010Prop51ColorRGB
 90
-16777216
102
RTVSPost2010PropOp51
 70
     0
102
RTVSPost2010Prop52
140
1.0
102
RTVSPost2010PropOp52
 70
     0
102
RTVSPost2010Prop53
 90
        2
102
RTVSPost2010PropOp53
 70
     1
102
RTVSPost2010Prop54
  1
strokes_ogs.tif
102
RTVSPost2010PropOp54
 70
     1
102
RTVSPost2010Prop55
280
     0
102
RTVSPost2010PropOp55
 70
     1
102
RTVSPost2010Prop56
140
1.0
102
RTVSPost2010PropOp56
 70
     1
102
RTVSPost2010Prop57
140
1.0
102
RTVSPost2010PropOp57
 70
     1
  0
XRECORD
  5
2E4
102
{ACAD_REACTORS
330
2E3
102
}
330
2E3
100
AcDbXrecord
280
     1
102
RTVSPropertyOp0
 70
     1
102
RTVSPropertyOp1
 70
     1
102
RTVSPropertyOp2
 70
     1
102
RTVSPropertyOp3
 70
     1
102
RTVSPropertyOp4
 70
     1
102
RTVSPropertyOp5
 70
     1
102
RTVSPropertyOp6
 70
     1
102
RTVSPropertyOp7
 70
     1
102
RTVSPropertyOp8
 70
     1
102
RTVSPropertyOp9
 70
     1
102
RTVSPropertyOp10
 70
     1
102
RTVSPropertyOp11
 70
     1
102
RTVSPropertyOp12
 70
     1
102
RTVSPropertyOp13
 70
     1
102
RTVSPropertyOp14
 70
     1
102
RTVSPropertyOp15
 70
     1
102
RTVSPropertyOp16
 70
     1
102
RTVSPropertyOp17
 70
     1
102
RTVSPropertyOp18
 70
     1
102
RTVSPropertyOp19
 70
     1
102
RTVSPropertyOp20
 70
     1
102
RTVSPropertyOp21
 70
     1
102
RTVSPropertyOp22
 70
     1
102
RTVSPropertyOp23
 70
     1
102
RTVSPropertyOp24
 70
     1
102
RTVSPropertyOp25
 70
     1
102
RTVSPropertyOp26
 70
     1
102
RTVSPropertyOp27
 70
     1
102
RTVSPropertyOp28
 70
     1
102
RTVSPropertyOp29
 70
     1
102
RTVSPropertyOp30
 70
     1
102
RTVSPropertyOp31
 70
     1
102
RTVSPropertyOp32
 70
     1
102
RTVSPropertyOp33
 70
     1
102
RTVSPropertyOp34
 70
     1
102
RTVSPropertyOp35
 70
     1
102
RTVSPropertyOp36
 70
     1
102
RTVSPropertyOp37
 70
     1
102
RTVSPropertyOp38
 70
     1
102
RTVSPropertyOp39
 70
     1
102
RTVSPropertyOp40
 70
     1
102
RTVSPropertyOp41
 70
     1
102
RTVSPropertyOp42
 70
     1
102
RTVSPropertyOp43
 70
     1
102
RTVSPropertyOp44
 70
     1
102
RTVSPropertyOp45
 70
     1
102
RTVSPropertyOp46
 70
     1
102
RTVSPropertyOp47
 70
     1
102
RTVSPropertyOp48
 70
     1
102
RTVSPropertyOp49
 70
     1
102
RTVSPropertyOp50
 70
     1
102
RTVSPropertyOp51
 70
     0
102
RTVSPropertyOp52
 70
     0
102
RTVSPropertyOp53
 70
     1
102
RTVSPropertyOp54
 70
     1
102
RTVSPropertyOp55
 70
     1
102
RTVSPropertyOp56
 70
     1
102
RTVSPropertyOp57
 70
     1
102
RTVSPost2010Prop28
280
     0
102
RTVSPost2010PropOp28
 70
     1
102
RTVSPost2010Prop29
280
     1
102
RTVSPost2010PropOp29
 70
     1
102
RTVSPost2010Prop30
280
     1
102
RTVSPost2010PropOp30
 70
     1
102
RTVSPost2010Prop31
280
     0
102
RTVSPost2010PropOp31
 70
     1
102
RTVSPost2010Prop32
280
     0
102
RTVSPost2010PropOp32
 70
     1
102
RTVSPost2010Prop33
280
     0
102
RTVSPost2010PropOp33
 70
     1
102
RTVSPost2010Prop34
280
     0
102
RTVSPost2010PropOp34
 70
     1
102
RTVSPost2010Prop35
280
     0
102
RTVSPost2010PropOp35
 70
     1
102
RTVSPost2010Prop36
280
     0
102
RTVSPost2010PropOp36
 70
     1
102
RTVSPost2010Prop37
 90
       50
102
RTVSPost2010PropOp37
 70
     1
102
RTVSPost2010Prop38
140
0.0
102
RTVSPost2010PropOp38
 70
     1
102
RTVSPost2010Prop39
140
1.0
102
RTVSPost2010PropOp39
 70
     1
102
RTVSPost2010Prop40
 90
        0
102
RTVSPost2010PropOp40
 70
     1
102
RTVSPost2010Prop41ColorIndex
 90
       18
102
RTVSPost2010Prop41ColorRGB
 90
        0
102
RTVSPost2010PropOp41
 70
     1
102
RTVSPost2010Prop42
 90
       50
102
RTVSPost2010PropOp42
 70
     1
102
RTVSPost2010Prop43
 90
        3
102
RTVSPost2010PropOp43
 70
     1
102
RTVSPost2010Prop44ColorIndex
 90
        5
102
RTVSPost2010Prop44ColorRGB
 90
      255
102
RTVSPost2010PropOp44
 70
     1
102
RTVSPost2010Prop45
280
     0
102
RTVSPost2010PropOp45
 70
     1
102
RTVSPost2010Prop46
 90
       50
102
RTVSPost2010PropOp46
 70
     1
102
RTVSPost2010Prop47
 90
       50
102
RTVSPost2010PropOp47
 70
     1
102
RTVSPost2010Prop48
 90
       50
102
RTVSPost2010PropOp48
 70
     1
102
RTVSPost2010Prop49
280
     0
102
RTVSPost2010PropOp49
 70
     1
102
RTVSPost2010Prop50
 90
       50
102
RTVSPost2010PropOp50
 70
     1
102
RTVSPost2010Prop51ColorIndex
 90
      256
102
RTVSPost2010Prop51ColorRGB
 90
-16777216
102
RTVSPost2010PropOp51
 70
     0
102
RTVSPost2010Prop52
140
1.0
102
RTVSPost2010PropOp52
 70
     0
102
RTVSPost2010Prop53
 90
        2
102
RTVSPost2010PropOp53
 70
     1
102
RTVSPost2010Prop54
  1
strokes_ogs.tif
102
RTVSPost2010PropOp54
 70
     1
102
RTVSPost2010Prop55
280
     0
102
RTVSPost2010PropOp55
 70
     1
102
RTVSPost2010Prop56
140
1.0
102
RTVSPost2010PropOp56
 70
     1
102
RTVSPost2010Prop57
140
1.0
102
RTVSPost2010PropOp57
 70
     1
  0
XRECORD
  5
2EC
102
{ACAD_REACTORS
330
2EB
102
}
330
2EB
100
AcDbXrecord
280
     1
102
RTVSPropertyOp0
 70
     1
102
RTVSPropertyOp1
 70
     1
102
RTVSPropertyOp2
 70
     1
102
RTVSPropertyOp3
 70
     1
102
RTVSPropertyOp4
 70
     1
102
RTVSPropertyOp5
 70
     1
102
RTVSPropertyOp6
 70
     1
102
RTVSPropertyOp7
 70
     1
102
RTVSPropertyOp8
 70
     1
102
RTVSPropertyOp9
 70
     1
102
RTVSPropertyOp10
 70
     1
102
RTVSPropertyOp11
 70
     1
102
RTVSPropertyOp12
 70
     1
102
RTVSPropertyOp13
 70
     1
102
RTVSPropertyOp14
 70
     1
102
RTVSPropertyOp15
 70
     1
102
RTVSPropertyOp16
 70
     1
102
RTVSPropertyOp17
 70
     1
102
RTVSPropertyOp18
 70
     1
102
RTVSPropertyOp19
 70
     1
102
RTVSPropertyOp20
 70
     1
102
RTVSPropertyOp21
 70
     1
102
RTVSPropertyOp22
 70
     1
102
RTVSPropertyOp23
 70
     1
102
RTVSPropertyOp24
 70
     1
102
RTVSPropertyOp25
 70
     1
102
RTVSPropertyOp26
 70
     1
102
RTVSPropertyOp27
 70
     1
102
RTVSPropertyOp28
 70
     1
102
RTVSPropertyOp29
 70
     1
102
RTVSPropertyOp30
 70
     1
102
RTVSPropertyOp31
 70
     1
102
RTVSPropertyOp32
 70
     1
102
RTVSPropertyOp33
 70
     1
102
RTVSPropertyOp34
 70
     1
102
RTVSPropertyOp35
 70
     1
102
RTVSPropertyOp36
 70
     1
102
RTVSPropertyOp37
 70
     1
102
RTVSPropertyOp38
 70
     1
102
RTVSPropertyOp39
 70
     1
102
RTVSPropertyOp40
 70
     1
102
RTVSPropertyOp41
 70
     1
102
RTVSPropertyOp42
 70
     1
102
RTVSPropertyOp43
 70
     1
102
RTVSPropertyOp44
 70
     1
102
RTVSPropertyOp45
 70
     1
102
RTVSPropertyOp46
 70
     1
102
RTVSPropertyOp47
 70
     1
102
RTVSPropertyOp48
 70
     1
102
RTVSPropertyOp49
 70
     1
102
RTVSPropertyOp50
 70
     1
102
RTVSPropertyOp51
 70
     0
102
RTVSPropertyOp52
 70
     0
102
RTVSPropertyOp53
 70
     1
102
RTVSPropertyOp54
 70
     1
102
RTVSPropertyOp55
 70
     1
102
RTVSPropertyOp56
 70
     1
102
RTVSPropertyOp57
 70
     1
102
RTVSPost2010Prop28
280
     0
102
RTVSPost2010PropOp28
 70
     1
102
RTVSPost2010Prop29
280
     1
102
RTVSPost2010PropOp29
 70
     1
102
RTVSPost2010Prop30
280
     1
102
RTVSPost2010PropOp30
 70
     1
102
RTVSPost2010Prop31
280
     0
102
RTVSPost2010PropOp31
 70
     1
102
RTVSPost2010Prop32
280
     0
102
RTVSPost2010PropOp32
 70
     1
102
RTVSPost2010Prop33
280
     0
102
RTVSPost2010PropOp33
 70
     1
102
RTVSPost2010Prop34
280
     0
102
RTVSPost2010PropOp34
 70
     1
102
RTVSPost2010Prop35
280
     0
102
RTVSPost2010PropOp35
 70
     1
102
RTVSPost2010Prop36
280
     0
102
RTVSPost2010PropOp36
 70
     1
102
RTVSPost2010Prop37
 90
       50
102
RTVSPost2010PropOp37
 70
     1
102
RTVSPost2010Prop38
140
0.0
102
RTVSPost2010PropOp38
 70
     1
102
RTVSPost2010Prop39
140
1.0
102
RTVSPost2010PropOp39
 70
     1
102
RTVSPost2010Prop40
 90
        0
102
RTVSPost2010PropOp40
 70
     1
102
RTVSPost2010Prop41ColorIndex
 90
       18
102
RTVSPost2010Prop41ColorRGB
 90
        0
102
RTVSPost2010PropOp41
 70
     1
102
RTVSPost2010Prop42
 90
       50
102
RTVSPost2010PropOp42
 70
     1
102
RTVSPost2010Prop43
 90
        3
102
RTVSPost2010PropOp43
 70
     1
102
RTVSPost2010Prop44ColorIndex
 90
        5
102
RTVSPost2010Prop44ColorRGB
 90
      255
102
RTVSPost2010PropOp44
 70
     1
102
RTVSPost2010Prop45
280
     0
102
RTVSPost2010PropOp45
 70
     1
102
RTVSPost2010Prop46
 90
       50
102
RTVSPost2010PropOp46
 70
     1
102
RTVSPost2010Prop47
 90
       50
102
RTVSPost2010PropOp47
 70
     1
102
RTVSPost2010Prop48
 90
       50
102
RTVSPost2010PropOp48
 70
     1
102
RTVSPost2010Prop49
280
     0
102
RTVSPost2010PropOp49
 70
     1
102
RTVSPost2010Prop50
 90
       50
102
RTVSPost2010PropOp50
 70
     1
102
RTVSPost2010Prop51ColorIndex
 90
      256
102
RTVSPost2010Prop51ColorRGB
 90
-16777216
102
RTVSPost2010PropOp51
 70
     0
102
RTVSPost2010Prop52
140
1.0
102
RTVSPost2010PropOp52
 70
     0
102
RTVSPost2010Prop53
 90
        2
102
RTVSPost2010PropOp53
 70
     1
102
RTVSPost2010Prop54
  1
strokes_ogs.tif
102
RTVSPost2010PropOp54
 70
     1
102
RTVSPost2010Prop55
280
     0
102
RTVSPost2010PropOp55
 70
     1
102
RTVSPost2010Prop56
140
1.0
102
RTVSPost2010PropOp56
 70
     1
102
RTVSPost2010Prop57
140
1.0
102
RTVSPost2010PropOp57
 70
     1
  0
XRECORD
  5
2E0
102
{ACAD_REACTORS
330
2DF
102
}
330
2DF
100
AcDbXrecord
280
     1
102
RTVSPropertyOp0
 70
     1
102
RTVSPropertyOp1
 70
     1
102
RTVSPropertyOp2
 70
     1
102
RTVSPropertyOp3
 70
     1
102
RTVSPropertyOp4
 70
     1
102
RTVSPropertyOp5
 70
     1
102
RTVSPropertyOp6
 70
     1
102
RTVSPropertyOp7
 70
     1
102
RTVSPropertyOp8
 70
     1
102
RTVSPropertyOp9
 70
     1
102
RTVSPropertyOp10
 70
     1
102
RTVSPropertyOp11
 70
     1
102
RTVSPropertyOp12
 70
     1
102
RTVSPropertyOp13
 70
     1
102
RTVSPropertyOp14
 70
     1
102
RTVSPropertyOp15
 70
     1
102
RTVSPropertyOp16
 70
     1
102
RTVSPropertyOp17
 70
     1
102
RTVSPropertyOp18
 70
     1
102
RTVSPropertyOp19
 70
     1
102
RTVSPropertyOp20
 70
     1
102
RTVSPropertyOp21
 70
     1
102
RTVSPropertyOp22
 70
     1
102
RTVSPropertyOp23
 70
     1
102
RTVSPropertyOp24
 70
     1
102
RTVSPropertyOp25
 70
     1
102
RTVSPropertyOp26
 70
     1
102
RTVSPropertyOp27
 70
     1
102
RTVSPropertyOp28
 70
     1
102
RTVSPropertyOp29
 70
     1
102
RTVSPropertyOp30
 70
     1
102
RTVSPropertyOp31
 70
     1
102
RTVSPropertyOp32
 70
     1
102
RTVSPropertyOp33
 70
     1
102
RTVSPropertyOp34
 70
     1
102
RTVSPropertyOp35
 70
     1
102
RTVSPropertyOp36
 70
     1
102
RTVSPropertyOp37
 70
     1
102
RTVSPropertyOp38
 70
     1
102
RTVSPropertyOp39
 70
     1
102
RTVSPropertyOp40
 70
     1
102
RTVSPropertyOp41
 70
     1
102
RTVSPropertyOp42
 70
     1
102
RTVSPropertyOp43
 70
     1
102
RTVSPropertyOp44
 70
     1
102
RTVSPropertyOp45
 70
     1
102
RTVSPropertyOp46
 70
     1
102
RTVSPropertyOp47
 70
     1
102
RTVSPropertyOp48
 70
     1
102
RTVSPropertyOp49
 70
     1
102
RTVSPropertyOp50
 70
     1
102
RTVSPropertyOp51
 70
     0
102
RTVSPropertyOp52
 70
     0
102
RTVSPropertyOp53
 70
     1
102
RTVSPropertyOp54
 70
     1
102
RTVSPropertyOp55
 70
     1
102
RTVSPropertyOp56
 70
     1
102
RTVSPropertyOp57
 70
     1
102
RTVSPost2010Prop28
280
     0
102
RTVSPost2010PropOp28
 70
     1
102
RTVSPost2010Prop29
280
     1
102
RTVSPost2010PropOp29
 70
     1
102
RTVSPost2010Prop30
280
     1
102
RTVSPost2010PropOp30
 70
     1
102
RTVSPost2010Prop31
280
     0
102
RTVSPost2010PropOp31
 70
     1
102
RTVSPost2010Prop32
280
     0
102
RTVSPost2010PropOp32
 70
     1
102
RTVSPost2010Prop33
280
     0
102
RTVSPost2010PropOp33
 70
     1
102
RTVSPost2010Prop34
280
     0
102
RTVSPost2010PropOp34
 70
     1
102
RTVSPost2010Prop35
280
     0
102
RTVSPost2010PropOp35
 70
     1
102
RTVSPost2010Prop36
280
     0
102
RTVSPost2010PropOp36
 70
     1
102
RTVSPost2010Prop37
 90
       50
102
RTVSPost2010PropOp37
 70
     1
102
RTVSPost2010Prop38
140
0.0
102
RTVSPost2010PropOp38
 70
     1
102
RTVSPost2010Prop39
140
1.0
102
RTVSPost2010PropOp39
 70
     1
102
RTVSPost2010Prop40
 90
        0
102
RTVSPost2010PropOp40
 70
     1
102
RTVSPost2010Prop41ColorIndex
 90
       18
102
RTVSPost2010Prop41ColorRGB
 90
        0
102
RTVSPost2010PropOp41
 70
     1
102
RTVSPost2010Prop42
 90
       50
102
RTVSPost2010PropOp42
 70
     1
102
RTVSPost2010Prop43
 90
        3
102
RTVSPost2010PropOp43
 70
     1
102
RTVSPost2010Prop44ColorIndex
 90
        5
102
RTVSPost2010Prop44ColorRGB
 90
      255
102
RTVSPost2010PropOp44
 70
     1
102
RTVSPost2010Prop45
280
     0
102
RTVSPost2010PropOp45
 70
     1
102
RTVSPost2010Prop46
 90
       50
102
RTVSPost2010PropOp46
 70
     1
102
RTVSPost2010Prop47
 90
       50
102
RTVSPost2010PropOp47
 70
     1
102
RTVSPost2010Prop48
 90
       50
102
RTVSPost2010PropOp48
 70
     1
102
RTVSPost2010Prop49
280
     0
102
RTVSPost2010PropOp49
 70
     1
102
RTVSPost2010Prop50
 90
       50
102
RTVSPost2010PropOp50
 70
     1
102
RTVSPost2010Prop51ColorIndex
 90
      256
102
RTVSPost2010Prop51ColorRGB
 90
-16777216
102
RTVSPost2010PropOp51
 70
     0
102
RTVSPost2010Prop52
140
1.0
102
RTVSPost2010PropOp52
 70
     0
102
RTVSPost2010Prop53
 90
        2
102
RTVSPost2010PropOp53
 70
     1
102
RTVSPost2010Prop54
  1
strokes_ogs.tif
102
RTVSPost2010PropOp54
 70
     1
102
RTVSPost2010Prop55
280
     0
102
RTVSPost2010PropOp55
 70
     1
102
RTVSPost2010Prop56
140
1.0
102
RTVSPost2010PropOp56
 70
     1
102
RTVSPost2010Prop57
140
1.0
102
RTVSPost2010PropOp57
 70
     1
  0
XRECORD
  5
2E2
102
{ACAD_REACTORS
330
2E1
102
}
330
2E1
100
AcDbXrecord
280
     1
102
RTVSPropertyOp0
 70
     1
102
RTVSPropertyOp1
 70
     1
102
RTVSPropertyOp2
 70
     1
102
RTVSPropertyOp3
 70
     1
102
RTVSPropertyOp4
 70
     1
102
RTVSPropertyOp5
 70
     1
102
RTVSPropertyOp6
 70
     1
102
RTVSPropertyOp7
 70
     1
102
RTVSPropertyOp8
 70
     1
102
RTVSPropertyOp9
 70
     1
102
RTVSPropertyOp10
 70
     1
102
RTVSPropertyOp11
 70
     1
102
RTVSPropertyOp12
 70
     1
102
RTVSPropertyOp13
 70
     1
102
RTVSPropertyOp14
 70
     1
102
RTVSPropertyOp15
 70
     1
102
RTVSPropertyOp16
 70
     1
102
RTVSPropertyOp17
 70
     1
102
RTVSPropertyOp18
 70
     1
102
RTVSPropertyOp19
 70
     1
102
RTVSPropertyOp20
 70
     1
102
RTVSPropertyOp21
 70
     1
102
RTVSPropertyOp22
 70
     1
102
RTVSPropertyOp23
 70
     1
102
RTVSPropertyOp24
 70
     1
102
RTVSPropertyOp25
 70
     1
102
RTVSPropertyOp26
 70
     1
102
RTVSPropertyOp27
 70
     1
102
RTVSPropertyOp28
 70
     1
102
RTVSPropertyOp29
 70
     1
102
RTVSPropertyOp30
 70
     1
102
RTVSPropertyOp31
 70
     1
102
RTVSPropertyOp32
 70
     1
102
RTVSPropertyOp33
 70
     1
102
RTVSPropertyOp34
 70
     1
102
RTVSPropertyOp35
 70
     1
102
RTVSPropertyOp36
 70
     1
102
RTVSPropertyOp37
 70
     1
102
RTVSPropertyOp38
 70
     1
102
RTVSPropertyOp39
 70
     1
102
RTVSPropertyOp40
 70
     1
102
RTVSPropertyOp41
 70
     1
102
RTVSPropertyOp42
 70
     1
102
RTVSPropertyOp43
 70
     1
102
RTVSPropertyOp44
 70
     1
102
RTVSPropertyOp45
 70
     1
102
RTVSPropertyOp46
 70
     1
102
RTVSPropertyOp47
 70
     1
102
RTVSPropertyOp48
 70
     1
102
RTVSPropertyOp49
 70
     1
102
RTVSPropertyOp50
 70
     1
102
RTVSPropertyOp51
 70
     0
102
RTVSPropertyOp52
 70
     0
102
RTVSPropertyOp53
 70
     1
102
RTVSPropertyOp54
 70
     1
102
RTVSPropertyOp55
 70
     1
102
RTVSPropertyOp56
 70
     1
102
RTVSPropertyOp57
 70
     1
102
RTVSPost2010Prop28
280
     0
102
RTVSPost2010PropOp28
 70
     1
102
RTVSPost2010Prop29
280
     1
102
RTVSPost2010PropOp29
 70
     1
102
RTVSPost2010Prop30
280
     1
102
RTVSPost2010PropOp30
 70
     1
102
RTVSPost2010Prop31
280
     0
102
RTVSPost2010PropOp31
 70
     1
102
RTVSPost2010Prop32
280
     0
102
RTVSPost2010PropOp32
 70
     1
102
RTVSPost2010Prop33
280
     0
102
RTVSPost2010PropOp33
 70
     1
102
RTVSPost2010Prop34
280
     0
102
RTVSPost2010PropOp34
 70
     1
102
RTVSPost2010Prop35
280
     0
102
RTVSPost2010PropOp35
 70
     1
102
RTVSPost2010Prop36
280
     0
102
RTVSPost2010PropOp36
 70
     1
102
RTVSPost2010Prop37
 90
       50
102
RTVSPost2010PropOp37
 70
     1
102
RTVSPost2010Prop38
140
0.0
102
RTVSPost2010PropOp38
 70
     1
102
RTVSPost2010Prop39
140
1.0
102
RTVSPost2010PropOp39
 70
     1
102
RTVSPost2010Prop40
 90
        0
102
RTVSPost2010PropOp40
 70
     1
102
RTVSPost2010Prop41ColorIndex
 90
       18
102
RTVSPost2010Prop41ColorRGB
 90
        0
102
RTVSPost2010PropOp41
 70
     1
102
RTVSPost2010Prop42
 90
       50
102
RTVSPost2010PropOp42
 70
     1
102
RTVSPost2010Prop43
 90
        3
102
RTVSPost2010PropOp43
 70
     1
102
RTVSPost2010Prop44ColorIndex
 90
        5
102
RTVSPost2010Prop44ColorRGB
 90
      255
102
RTVSPost2010PropOp44
 70
     1
102
RTVSPost2010Prop45
280
     0
102
RTVSPost2010PropOp45
 70
     1
102
RTVSPost2010Prop46
 90
       50
102
RTVSPost2010PropOp46
 70
     1
102
RTVSPost2010Prop47
 90
       50
102
RTVSPost2010PropOp47
 70
     1
102
RTVSPost2010Prop48
 90
       50
102
RTVSPost2010PropOp48
 70
     1
102
RTVSPost2010Prop49
280
     0
102
RTVSPost2010PropOp49
 70
     1
102
RTVSPost2010Prop50
 90
       50
102
RTVSPost2010PropOp50
 70
     1
102
RTVSPost2010Prop51ColorIndex
 90
      256
102
RTVSPost2010Prop51ColorRGB
 90
-16777216
102
RTVSPost2010PropOp51
 70
     0
102
RTVSPost2010Prop52
140
1.0
102
RTVSPost2010PropOp52
 70
     0
102
RTVSPost2010Prop53
 90
        2
102
RTVSPost2010PropOp53
 70
     1
102
RTVSPost2010Prop54
  1
strokes_ogs.tif
102
RTVSPost2010PropOp54
 70
     1
102
RTVSPost2010Prop55
280
     0
102
RTVSPost2010PropOp55
 70
     1
102
RTVSPost2010Prop56
140
1.0
102
RTVSPost2010PropOp56
 70
     1
102
RTVSPost2010Prop57
140
1.0
102
RTVSPost2010PropOp57
 70
     1
  0
XRECORD
  5
2F2
102
{ACAD_REACTORS
330
2F1
102
}
330
2F1
100
AcDbXrecord
280
     1
102
RTVSPropertyOp0
 70
     0
102
RTVSPropertyOp1
 70
     0
102
RTVSPropertyOp2
 70
     0
102
RTVSPropertyOp3
 70
     0
102
RTVSPropertyOp4
 70
     0
102
RTVSPropertyOp5
 70
     0
102
RTVSPropertyOp6
 70
     0
102
RTVSPropertyOp7
 70
     0
102
RTVSPropertyOp8
 70
     0
102
RTVSPropertyOp9
 70
     0
102
RTVSPropertyOp10
 70
     0
102
RTVSPropertyOp11
 70
     0
102
RTVSPropertyOp12
 70
     0
102
RTVSPropertyOp13
 70
     0
102
RTVSPropertyOp14
 70
     2
102
RTVSPropertyOp15
 70
     0
102
RTVSPropertyOp16
 70
     0
102
RTVSPropertyOp17
 70
     0
102
RTVSPropertyOp18
 70
     0
102
RTVSPropertyOp19
 70
     0
102
RTVSPropertyOp20
 70
     0
102
RTVSPropertyOp21
 70
     0
102
RTVSPropertyOp22
 70
     0
102
RTVSPropertyOp23
 70
     0
102
RTVSPropertyOp24
 70
     0
102
RTVSPropertyOp25
 70
     0
102
RTVSPropertyOp26
 70
     0
102
RTVSPropertyOp27
 70
     0
102
RTVSPropertyOp28
 70
     0
102
RTVSPropertyOp29
 70
     0
102
RTVSPropertyOp30
 70
     0
102
RTVSPropertyOp31
 70
     0
102
RTVSPropertyOp32
 70
     0
102
RTVSPropertyOp33
 70
     0
102
RTVSPropertyOp34
 70
     0
102
RTVSPropertyOp35
 70
     0
102
RTVSPropertyOp36
 70
     0
102
RTVSPropertyOp37
 70
     0
102
RTVSPropertyOp38
 70
     0
102
RTVSPropertyOp39
 70
     0
102
RTVSPropertyOp40
 70
     0
102
RTVSPropertyOp41
 70
     0
102
RTVSPropertyOp42
 70
     0
102
RTVSPropertyOp43
 70
     0
102
RTVSPropertyOp44
 70
     0
102
RTVSPropertyOp45
 70
     0
102
RTVSPropertyOp46
 70
     0
102
RTVSPropertyOp47
 70
     0
102
RTVSPropertyOp48
 70
     0
102
RTVSPropertyOp49
 70
     0
102
RTVSPropertyOp50
 70
     0
102
RTVSPropertyOp51
 70
     0
102
RTVSPropertyOp52
 70
     0
102
RTVSPropertyOp53
 70
     0
102
RTVSPropertyOp54
 70
     0
102
RTVSPropertyOp55
 70
     0
102
RTVSPropertyOp56
 70
     0
102
RTVSPropertyOp57
 70
     0
102
RTVSPost2010Prop28
280
     0
102
RTVSPost2010PropOp28
 70
     0
102
RTVSPost2010Prop29
280
     1
102
RTVSPost2010PropOp29
 70
     0
102
RTVSPost2010Prop30
280
     1
102
RTVSPost2010PropOp30
 70
     0
102
RTVSPost2010Prop31
280
     0
102
RTVSPost2010PropOp31
 70
     0
102
RTVSPost2010Prop32
280
     0
102
RTVSPost2010PropOp32
 70
     0
102
RTVSPost2010Prop33
280
     0
102
RTVSPost2010PropOp33
 70
     0
102
RTVSPost2010Prop34
280
     0
102
RTVSPost2010PropOp34
 70
     0
102
RTVSPost2010Prop35
280
     0
102
RTVSPost2010PropOp35
 70
     0
102
RTVSPost2010Prop36
280
     0
102
RTVSPost2010PropOp36
 70
     0
102
RTVSPost2010Prop37
 90
       50
102
RTVSPost2010PropOp37
 70
     0
102
RTVSPost2010Prop38
140
0.0
102
RTVSPost2010PropOp38
 70
     0
102
RTVSPost2010Prop39
140
1.0
102
RTVSPost2010PropOp39
 70
     0
102
RTVSPost2010Prop40
 90
        0
102
RTVSPost2010PropOp40
 70
     0
102
RTVSPost2010Prop41ColorIndex
 90
       18
102
RTVSPost2010Prop41ColorRGB
 90
        0
102
RTVSPost2010PropOp41
 70
     0
102
RTVSPost2010Prop42
 90
       50
102
RTVSPost2010PropOp42
 70
     0
102
RTVSPost2010Prop43
 90
        3
102
RTVSPost2010PropOp43
 70
     0
102
RTVSPost2010Prop44ColorIndex
 90
        5
102
RTVSPost2010Prop44ColorRGB
 90
      255
102
RTVSPost2010PropOp44
 70
     0
102
RTVSPost2010Prop45
280
     0
102
RTVSPost2010PropOp45
 70
     0
102
RTVSPost2010Prop46
 90
       50
102
RTVSPost2010PropOp46
 70
     0
102
RTVSPost2010Prop47
 90
       50
102
RTVSPost2010PropOp47
 70
     0
102
RTVSPost2010Prop48
 90
       50
102
RTVSPost2010PropOp48
 70
     0
102
RTVSPost2010Prop49
280
     0
102
RTVSPost2010PropOp49
 70
     0
102
RTVSPost2010Prop50
 90
       50
102
RTVSPost2010PropOp50
 70
     0
102
RTVSPost2010Prop51ColorIndex
 90
      256
102
RTVSPost2010Prop51ColorRGB
 90
-16777216
102
RTVSPost2010PropOp51
 70
     0
102
RTVSPost2010Prop52
140
1.0
102
RTVSPost2010PropOp52
 70
     0
102
RTVSPost2010Prop53
 90
        2
102
RTVSPost2010PropOp53
 70
     0
102
RTVSPost2010Prop54
  1
strokes_ogs.tif
102
RTVSPost2010PropOp54
 70
     0
102
RTVSPost2010Prop55
280
     0
102
RTVSPost2010PropOp55
 70
     0
102
RTVSPost2010Prop56
140
1.0
102
RTVSPost2010PropOp56
 70
     0
102
RTVSPost2010Prop57
140
1.0
102
RTVSPost2010PropOp57
 70
     0
  0
XRECORD
  5
2EA
102
{ACAD_REACTORS
330
2E9
102
}
330
2E9
100
AcDbXrecord
280
     1
102
RTVSPropertyOp0
 70
     1
102
RTVSPropertyOp1
 70
     1
102
RTVSPropertyOp2
 70
     1
102
RTVSPropertyOp3
 70
     1
102
RTVSPropertyOp4
 70
     1
102
RTVSPropertyOp5
 70
     1
102
RTVSPropertyOp6
 70
     1
102
RTVSPropertyOp7
 70
     1
102
RTVSPropertyOp8
 70
     1
102
RTVSPropertyOp9
 70
     1
102
RTVSPropertyOp10
 70
     1
102
RTVSPropertyOp11
 70
     1
102
RTVSPropertyOp12
 70
     1
102
RTVSPropertyOp13
 70
     1
102
RTVSPropertyOp14
 70
     1
102
RTVSPropertyOp15
 70
     1
102
RTVSPropertyOp16
 70
     1
102
RTVSPropertyOp17
 70
     1
102
RTVSPropertyOp18
 70
     1
102
RTVSPropertyOp19
 70
     1
102
RTVSPropertyOp20
 70
     1
102
RTVSPropertyOp21
 70
     1
102
RTVSPropertyOp22
 70
     1
102
RTVSPropertyOp23
 70
     1
102
RTVSPropertyOp24
 70
     1
102
RTVSPropertyOp25
 70
     1
102
RTVSPropertyOp26
 70
     1
102
RTVSPropertyOp27
 70
     1
102
RTVSPropertyOp28
 70
     1
102
RTVSPropertyOp29
 70
     1
102
RTVSPropertyOp30
 70
     1
102
RTVSPropertyOp31
 70
     1
102
RTVSPropertyOp32
 70
     1
102
RTVSPropertyOp33
 70
     1
102
RTVSPropertyOp34
 70
     1
102
RTVSPropertyOp35
 70
     1
102
RTVSPropertyOp36
 70
     1
102
RTVSPropertyOp37
 70
     1
102
RTVSPropertyOp38
 70
     1
102
RTVSPropertyOp39
 70
     1
102
RTVSPropertyOp40
 70
     1
102
RTVSPropertyOp41
 70
     1
102
RTVSPropertyOp42
 70
     1
102
RTVSPropertyOp43
 70
     1
102
RTVSPropertyOp44
 70
     1
102
RTVSPropertyOp45
 70
     1
102
RTVSPropertyOp46
 70
     1
102
RTVSPropertyOp47
 70
     1
102
RTVSPropertyOp48
 70
     1
102
RTVSPropertyOp49
 70
     1
102
RTVSPropertyOp50
 70
     1
102
RTVSPropertyOp51
 70
     0
102
RTVSPropertyOp52
 70
     0
102
RTVSPropertyOp53
 70
     1
102
RTVSPropertyOp54
 70
     1
102
RTVSPropertyOp55
 70
     1
102
RTVSPropertyOp56
 70
     1
102
RTVSPropertyOp57
 70
     1
102
RTVSPost2010Prop28
280
     0
102
RTVSPost2010PropOp28
 70
     1
102
RTVSPost2010Prop29
280
     1
102
RTVSPost2010PropOp29
 70
     1
102
RTVSPost2010Prop30
280
     1
102
RTVSPost2010PropOp30
 70
     1
102
RTVSPost2010Prop31
280
     0
102
RTVSPost2010PropOp31
 70
     1
102
RTVSPost2010Prop32
280
     0
102
RTVSPost2010PropOp32
 70
     1
102
RTVSPost2010Prop33
280
     0
102
RTVSPost2010PropOp33
 70
     1
102
RTVSPost2010Prop34
280
     0
102
RTVSPost2010PropOp34
 70
     1
102
RTVSPost2010Prop35
280
     0
102
RTVSPost2010PropOp35
 70
     1
102
RTVSPost2010Prop36
280
     0
102
RTVSPost2010PropOp36
 70
     1
102
RTVSPost2010Prop37
 90
       50
102
RTVSPost2010PropOp37
 70
     1
102
RTVSPost2010Prop38
140
0.0
102
RTVSPost2010PropOp38
 70
     1
102
RTVSPost2010Prop39
140
1.0
102
RTVSPost2010PropOp39
 70
     1
102
RTVSPost2010Prop40
 90
        0
102
RTVSPost2010PropOp40
 70
     1
102
RTVSPost2010Prop41ColorIndex
 90
       18
102
RTVSPost2010Prop41ColorRGB
 90
        0
102
RTVSPost2010PropOp41
 70
     1
102
RTVSPost2010Prop42
 90
       50
102
RTVSPost2010PropOp42
 70
     1
102
RTVSPost2010Prop43
 90
        3
102
RTVSPost2010PropOp43
 70
     1
102
RTVSPost2010Prop44ColorIndex
 90
        5
102
RTVSPost2010Prop44ColorRGB
 90
      255
102
RTVSPost2010PropOp44
 70
     1
102
RTVSPost2010Prop45
280
     0
102
RTVSPost2010PropOp45
 70
     1
102
RTVSPost2010Prop46
 90
       50
102
RTVSPost2010PropOp46
 70
     1
102
RTVSPost2010Prop47
 90
       50
102
RTVSPost2010PropOp47
 70
     1
102
RTVSPost2010Prop48
 90
       50
102
RTVSPost2010PropOp48
 70
     1
102
RTVSPost2010Prop49
280
     0
102
RTVSPost2010PropOp49
 70
     1
102
RTVSPost2010Prop50
 90
       50
102
RTVSPost2010PropOp50
 70
     1
102
RTVSPost2010Prop51ColorIndex
 90
      256
102
RTVSPost2010Prop51ColorRGB
 90
-16777216
102
RTVSPost2010PropOp51
 70
     0
102
RTVSPost2010Prop52
140
1.0
102
RTVSPost2010PropOp52
 70
     0
102
RTVSPost2010Prop53
 90
        2
102
RTVSPost2010PropOp53
 70
     1
102
RTVSPost2010Prop54
  1
strokes_ogs.tif
102
RTVSPost2010PropOp54
 70
     1
102
RTVSPost2010Prop55
280
     0
102
RTVSPost2010PropOp55
 70
     1
102
RTVSPost2010Prop56
140
1.0
102
RTVSPost2010PropOp56
 70
     1
102
RTVSPost2010Prop57
140
1.0
102
RTVSPost2010PropOp57
 70
     1
  0
XRECORD
  5
2CE
102
{ACAD_REACTORS
330
2CD
102
}
330
2CD
100
AcDbXrecord
280
     1
102
RTVSPropertyOp0
 70
     1
102
RTVSPropertyOp1
 70
     1
102
RTVSPropertyOp2
 70
     1
102
RTVSPropertyOp3
 70
     1
102
RTVSPropertyOp4
 70
     1
102
RTVSPropertyOp5
 70
     1
102
RTVSPropertyOp6
 70
     1
102
RTVSPropertyOp7
 70
     1
102
RTVSPropertyOp8
 70
     1
102
RTVSPropertyOp9
 70
     1
102
RTVSPropertyOp10
 70
     1
102
RTVSPropertyOp11
 70
     1
102
RTVSPropertyOp12
 70
     1
102
RTVSPropertyOp13
 70
     1
102
RTVSPropertyOp14
 70
     1
102
RTVSPropertyOp15
 70
     1
102
RTVSPropertyOp16
 70
     1
102
RTVSPropertyOp17
 70
     1
102
RTVSPropertyOp18
 70
     1
102
RTVSPropertyOp19
 70
     1
102
RTVSPropertyOp20
 70
     1
102
RTVSPropertyOp21
 70
     1
102
RTVSPropertyOp22
 70
     1
102
RTVSPropertyOp23
 70
     1
102
RTVSPropertyOp24
 70
     1
102
RTVSPropertyOp25
 70
     1
102
RTVSPropertyOp26
 70
     1
102
RTVSPropertyOp27
 70
     1
102
RTVSPropertyOp28
 70
     1
102
RTVSPropertyOp29
 70
     1
102
RTVSPropertyOp30
 70
     1
102
RTVSPropertyOp31
 70
     1
102
RTVSPropertyOp32
 70
     1
102
RTVSPropertyOp33
 70
     1
102
RTVSPropertyOp34
 70
     1
102
RTVSPropertyOp35
 70
     1
102
RTVSPropertyOp36
 70
     1
102
RTVSPropertyOp37
 70
     1
102
RTVSPropertyOp38
 70
     1
102
RTVSPropertyOp39
 70
     1
102
RTVSPropertyOp40
 70
     1
102
RTVSPropertyOp41
 70
     1
102
RTVSPropertyOp42
 70
     1
102
RTVSPropertyOp43
 70
     1
102
RTVSPropertyOp44
 70
     1
102
RTVSPropertyOp45
 70
     1
102
RTVSPropertyOp46
 70
     1
102
RTVSPropertyOp47
 70
     1
102
RTVSPropertyOp48
 70
     1
102
RTVSPropertyOp49
 70
     1
102
RTVSPropertyOp50
 70
     1
102
RTVSPropertyOp51
 70
     0
102
RTVSPropertyOp52
 70
     0
102
RTVSPropertyOp53
 70
     1
102
RTVSPropertyOp54
 70
     1
102
RTVSPropertyOp55
 70
     1
102
RTVSPropertyOp56
 70
     1
102
RTVSPropertyOp57
 70
     1
102
RTVSPost2010Prop28
280
     0
102
RTVSPost2010PropOp28
 70
     1
102
RTVSPost2010Prop29
280
     1
102
RTVSPost2010PropOp29
 70
     1
102
RTVSPost2010Prop30
280
     1
102
RTVSPost2010PropOp30
 70
     1
102
RTVSPost2010Prop31
280
     0
102
RTVSPost2010PropOp31
 70
     1
102
RTVSPost2010Prop32
280
     0
102
RTVSPost2010PropOp32
 70
     1
102
RTVSPost2010Prop33
280
     0
102
RTVSPost2010PropOp33
 70
     1
102
RTVSPost2010Prop34
280
     0
102
RTVSPost2010PropOp34
 70
     1
102
RTVSPost2010Prop35
280
     0
102
RTVSPost2010PropOp35
 70
     1
102
RTVSPost2010Prop36
280
     0
102
RTVSPost2010PropOp36
 70
     1
102
RTVSPost2010Prop37
 90
       50
102
RTVSPost2010PropOp37
 70
     1
102
RTVSPost2010Prop38
140
0.0
102
RTVSPost2010PropOp38
 70
     1
102
RTVSPost2010Prop39
140
1.0
102
RTVSPost2010PropOp39
 70
     1
102
RTVSPost2010Prop40
 90
        0
102
RTVSPost2010PropOp40
 70
     1
102
RTVSPost2010Prop41ColorIndex
 90
       18
102
RTVSPost2010Prop41ColorRGB
 90
        0
102
RTVSPost2010PropOp41
 70
     1
102
RTVSPost2010Prop42
 90
       50
102
RTVSPost2010PropOp42
 70
     1
102
RTVSPost2010Prop43
 90
        3
102
RTVSPost2010PropOp43
 70
     1
102
RTVSPost2010Prop44ColorIndex
 90
        5
102
RTVSPost2010Prop44ColorRGB
 90
      255
102
RTVSPost2010PropOp44
 70
     1
102
RTVSPost2010Prop45
280
     0
102
RTVSPost2010PropOp45
 70
     1
102
RTVSPost2010Prop46
 90
       50
102
RTVSPost2010PropOp46
 70
     1
102
RTVSPost2010Prop47
 90
       50
102
RTVSPost2010PropOp47
 70
     1
102
RTVSPost2010Prop48
 90
       50
102
RTVSPost2010PropOp48
 70
     1
102
RTVSPost2010Prop49
280
     0
102
RTVSPost2010PropOp49
 70
     1
102
RTVSPost2010Prop50
 90
       50
102
RTVSPost2010PropOp50
 70
     1
102
RTVSPost2010Prop51ColorIndex
 90
      256
102
RTVSPost2010Prop51ColorRGB
 90
-16777216
102
RTVSPost2010PropOp51
 70
     0
102
RTVSPost2010Prop52
140
1.0
102
RTVSPost2010PropOp52
 70
     0
102
RTVSPost2010Prop53
 90
        2
102
RTVSPost2010PropOp53
 70
     1
102
RTVSPost2010Prop54
  1
strokes_ogs.tif
102
RTVSPost2010PropOp54
 70
     1
102
RTVSPost2010Prop55
280
     0
102
RTVSPost2010PropOp55
 70
     1
102
RTVSPost2010Prop56
140
1.0
102
RTVSPost2010PropOp56
 70
     1
102
RTVSPost2010Prop57
140
1.0
102
RTVSPost2010PropOp57
 70
     1
  0
XRECORD
  5
2D0
102
{ACAD_REACTORS
330
2CF
102
}
330
2CF
100
AcDbXrecord
280
     1
102
RTVSPropertyOp0
 70
     1
102
RTVSPropertyOp1
 70
     1
102
RTVSPropertyOp2
 70
     1
102
RTVSPropertyOp3
 70
     1
102
RTVSPropertyOp4
 70
     1
102
RTVSPropertyOp5
 70
     1
102
RTVSPropertyOp6
 70
     1
102
RTVSPropertyOp7
 70
     1
102
RTVSPropertyOp8
 70
     1
102
RTVSPropertyOp9
 70
     1
102
RTVSPropertyOp10
 70
     1
102
RTVSPropertyOp11
 70
     1
102
RTVSPropertyOp12
 70
     1
102
RTVSPropertyOp13
 70
     1
102
RTVSPropertyOp14
 70
     1
102
RTVSPropertyOp15
 70
     1
102
RTVSPropertyOp16
 70
     1
102
RTVSPropertyOp17
 70
     1
102
RTVSPropertyOp18
 70
     1
102
RTVSPropertyOp19
 70
     1
102
RTVSPropertyOp20
 70
     1
102
RTVSPropertyOp21
 70
     1
102
RTVSPropertyOp22
 70
     1
102
RTVSPropertyOp23
 70
     1
102
RTVSPropertyOp24
 70
     1
102
RTVSPropertyOp25
 70
     1
102
RTVSPropertyOp26
 70
     1
102
RTVSPropertyOp27
 70
     1
102
RTVSPropertyOp28
 70
     1
102
RTVSPropertyOp29
 70
     1
102
RTVSPropertyOp30
 70
     1
102
RTVSPropertyOp31
 70
     1
102
RTVSPropertyOp32
 70
     1
102
RTVSPropertyOp33
 70
     1
102
RTVSPropertyOp34
 70
     1
102
RTVSPropertyOp35
 70
     1
102
RTVSPropertyOp36
 70
     1
102
RTVSPropertyOp37
 70
     1
102
RTVSPropertyOp38
 70
     1
102
RTVSPropertyOp39
 70
     1
102
RTVSPropertyOp40
 70
     1
102
RTVSPropertyOp41
 70
     1
102
RTVSPropertyOp42
 70
     1
102
RTVSPropertyOp43
 70
     1
102
RTVSPropertyOp44
 70
     1
102
RTVSPropertyOp45
 70
     1
102
RTVSPropertyOp46
 70
     1
102
RTVSPropertyOp47
 70
     1
102
RTVSPropertyOp48
 70
     1
102
RTVSPropertyOp49
 70
     1
102
RTVSPropertyOp50
 70
     1
102
RTVSPropertyOp51
 70
     0
102
RTVSPropertyOp52
 70
     0
102
RTVSPropertyOp53
 70
     1
102
RTVSPropertyOp54
 70
     1
102
RTVSPropertyOp55
 70
     1
102
RTVSPropertyOp56
 70
     1
102
RTVSPropertyOp57
 70
     1
102
RTVSPost2010Prop28
280
     0
102
RTVSPost2010PropOp28
 70
     1
102
RTVSPost2010Prop29
280
     1
102
RTVSPost2010PropOp29
 70
     1
102
RTVSPost2010Prop30
280
     1
102
RTVSPost2010PropOp30
 70
     1
102
RTVSPost2010Prop31
280
     0
102
RTVSPost2010PropOp31
 70
     1
102
RTVSPost2010Prop32
280
     0
102
RTVSPost2010PropOp32
 70
     1
102
RTVSPost2010Prop33
280
     0
102
RTVSPost2010PropOp33
 70
     1
102
RTVSPost2010Prop34
280
     0
102
RTVSPost2010PropOp34
 70
     1
102
RTVSPost2010Prop35
280
     0
102
RTVSPost2010PropOp35
 70
     1
102
RTVSPost2010Prop36
280
     0
102
RTVSPost2010PropOp36
 70
     1
102
RTVSPost2010Prop37
 90
       50
102
RTVSPost2010PropOp37
 70
     1
102
RTVSPost2010Prop38
140
0.0
102
RTVSPost2010PropOp38
 70
     1
102
RTVSPost2010Prop39
140
1.0
102
RTVSPost2010PropOp39
 70
     1
102
RTVSPost2010Prop40
 90
        0
102
RTVSPost2010PropOp40
 70
     1
102
RTVSPost2010Prop41ColorIndex
 90
       18
102
RTVSPost2010Prop41ColorRGB
 90
        0
102
RTVSPost2010PropOp41
 70
     1
102
RTVSPost2010Prop42
 90
       50
102
RTVSPost2010PropOp42
 70
     1
102
RTVSPost2010Prop43
 90
        3
102
RTVSPost2010PropOp43
 70
     1
102
RTVSPost2010Prop44ColorIndex
 90
        5
102
RTVSPost2010Prop44ColorRGB
 90
      255
102
RTVSPost2010PropOp44
 70
     1
102
RTVSPost2010Prop45
280
     0
102
RTVSPost2010PropOp45
 70
     1
102
RTVSPost2010Prop46
 90
       50
102
RTVSPost2010PropOp46
 70
     1
102
RTVSPost2010Prop47
 90
       50
102
RTVSPost2010PropOp47
 70
     1
102
RTVSPost2010Prop48
 90
       50
102
RTVSPost2010PropOp48
 70
     1
102
RTVSPost2010Prop49
280
     0
102
RTVSPost2010PropOp49
 70
     1
102
RTVSPost2010Prop50
 90
       50
102
RTVSPost2010PropOp50
 70
     1
102
RTVSPost2010Prop51ColorIndex
 90
      256
102
RTVSPost2010Prop51ColorRGB
 90
-16777216
102
RTVSPost2010PropOp51
 70
     0
102
RTVSPost2010Prop52
140
1.0
102
RTVSPost2010PropOp52
 70
     0
102
RTVSPost2010Prop53
 90
        2
102
RTVSPost2010PropOp53
 70
     1
102
RTVSPost2010Prop54
  1
strokes_ogs.tif
102
RTVSPost2010PropOp54
 70
     1
102
RTVSPost2010Prop55
280
     0
102
RTVSPost2010PropOp55
 70
     1
102
RTVSPost2010Prop56
140
1.0
102
RTVSPost2010PropOp56
 70
     1
102
RTVSPost2010Prop57
140
1.0
102
RTVSPost2010PropOp57
 70
     1
  0
XRECORD
  5
2D2
102
{ACAD_REACTORS
330
2D1
102
}
330
2D1
100
AcDbXrecord
280
     1
102
RTVSPropertyOp0
 70
     1
102
RTVSPropertyOp1
 70
     1
102
RTVSPropertyOp2
 70
     1
102
RTVSPropertyOp3
 70
     1
102
RTVSPropertyOp4
 70
     1
102
RTVSPropertyOp5
 70
     1
102
RTVSPropertyOp6
 70
     1
102
RTVSPropertyOp7
 70
     1
102
RTVSPropertyOp8
 70
     1
102
RTVSPropertyOp9
 70
     1
102
RTVSPropertyOp10
 70
     1
102
RTVSPropertyOp11
 70
     1
102
RTVSPropertyOp12
 70
     1
102
RTVSPropertyOp13
 70
     1
102
RTVSPropertyOp14
 70
     1
102
RTVSPropertyOp15
 70
     1
102
RTVSPropertyOp16
 70
     1
102
RTVSPropertyOp17
 70
     1
102
RTVSPropertyOp18
 70
     1
102
RTVSPropertyOp19
 70
     1
102
RTVSPropertyOp20
 70
     1
102
RTVSPropertyOp21
 70
     1
102
RTVSPropertyOp22
 70
     1
102
RTVSPropertyOp23
 70
     1
102
RTVSPropertyOp24
 70
     1
102
RTVSPropertyOp25
 70
     1
102
RTVSPropertyOp26
 70
     1
102
RTVSPropertyOp27
 70
     1
102
RTVSPropertyOp28
 70
     1
102
RTVSPropertyOp29
 70
     1
102
RTVSPropertyOp30
 70
     1
102
RTVSPropertyOp31
 70
     1
102
RTVSPropertyOp32
 70
     1
102
RTVSPropertyOp33
 70
     1
102
RTVSPropertyOp34
 70
     1
102
RTVSPropertyOp35
 70
     1
102
RTVSPropertyOp36
 70
     1
102
RTVSPropertyOp37
 70
     1
102
RTVSPropertyOp38
 70
     1
102
RTVSPropertyOp39
 70
     1
102
RTVSPropertyOp40
 70
     1
102
RTVSPropertyOp41
 70
     1
102
RTVSPropertyOp42
 70
     1
102
RTVSPropertyOp43
 70
     1
102
RTVSPropertyOp44
 70
     1
102
RTVSPropertyOp45
 70
     1
102
RTVSPropertyOp46
 70
     1
102
RTVSPropertyOp47
 70
     1
102
RTVSPropertyOp48
 70
     1
102
RTVSPropertyOp49
 70
     1
102
RTVSPropertyOp50
 70
     1
102
RTVSPropertyOp51
 70
     0
102
RTVSPropertyOp52
 70
     0
102
RTVSPropertyOp53
 70
     1
102
RTVSPropertyOp54
 70
     1
102
RTVSPropertyOp55
 70
     1
102
RTVSPropertyOp56
 70
     1
102
RTVSPropertyOp57
 70
     1
102
RTVSPost2010Prop28
280
     0
102
RTVSPost2010PropOp28
 70
     1
102
RTVSPost2010Prop29
280
     1
102
RTVSPost2010PropOp29
 70
     1
102
RTVSPost2010Prop30
280
     1
102
RTVSPost2010PropOp30
 70
     1
102
RTVSPost2010Prop31
280
     0
102
RTVSPost2010PropOp31
 70
     1
102
RTVSPost2010Prop32
280
     0
102
RTVSPost2010PropOp32
 70
     1
102
RTVSPost2010Prop33
280
     0
102
RTVSPost2010PropOp33
 70
     1
102
RTVSPost2010Prop34
280
     0
102
RTVSPost2010PropOp34
 70
     1
102
RTVSPost2010Prop35
280
     0
102
RTVSPost2010PropOp35
 70
     1
102
RTVSPost2010Prop36
280
     0
102
RTVSPost2010PropOp36
 70
     1
102
RTVSPost2010Prop37
 90
       50
102
RTVSPost2010PropOp37
 70
     1
102
RTVSPost2010Prop38
140
0.0
102
RTVSPost2010PropOp38
 70
     1
102
RTVSPost2010Prop39
140
1.0
102
RTVSPost2010PropOp39
 70
     1
102
RTVSPost2010Prop40
 90
        0
102
RTVSPost2010PropOp40
 70
     1
102
RTVSPost2010Prop41ColorIndex
 90
       18
102
RTVSPost2010Prop41ColorRGB
 90
        0
102
RTVSPost2010PropOp41
 70
     1
102
RTVSPost2010Prop42
 90
       50
102
RTVSPost2010PropOp42
 70
     1
102
RTVSPost2010Prop43
 90
        3
102
RTVSPost2010PropOp43
 70
     1
102
RTVSPost2010Prop44ColorIndex
 90
        5
102
RTVSPost2010Prop44ColorRGB
 90
      255
102
RTVSPost2010PropOp44
 70
     1
102
RTVSPost2010Prop45
280
     0
102
RTVSPost2010PropOp45
 70
     1
102
RTVSPost2010Prop46
 90
       50
102
RTVSPost2010PropOp46
 70
     1
102
RTVSPost2010Prop47
 90
       50
102
RTVSPost2010PropOp47
 70
     1
102
RTVSPost2010Prop48
 90
       50
102
RTVSPost2010PropOp48
 70
     1
102
RTVSPost2010Prop49
280
     0
102
RTVSPost2010PropOp49
 70
     1
102
RTVSPost2010Prop50
 90
       50
102
RTVSPost2010PropOp50
 70
     1
102
RTVSPost2010Prop51ColorIndex
 90
      256
102
RTVSPost2010Prop51ColorRGB
 90
-16777216
102
RTVSPost2010PropOp51
 70
     0
102
RTVSPost2010Prop52
140
1.0
102
RTVSPost2010PropOp52
 70
     0
102
RTVSPost2010Prop53
 90
        2
102
RTVSPost2010PropOp53
 70
     1
102
RTVSPost2010Prop54
  1
strokes_ogs.tif
102
RTVSPost2010PropOp54
 70
     1
102
RTVSPost2010Prop55
280
     0
102
RTVSPost2010PropOp55
 70
     1
102
RTVSPost2010Prop56
140
1.0
102
RTVSPost2010PropOp56
 70
     1
102
RTVSPost2010Prop57
140
1.0
102
RTVSPost2010PropOp57
 70
     1
  0
XRECORD
  5
2D4
102
{ACAD_REACTORS
330
2D3
102
}
330
2D3
100
AcDbXrecord
280
     1
102
RTVSPropertyOp0
 70
     1
102
RTVSPropertyOp1
 70
     1
102
RTVSPropertyOp2
 70
     1
102
RTVSPropertyOp3
 70
     1
102
RTVSPropertyOp4
 70
     1
102
RTVSPropertyOp5
 70
     1
102
RTVSPropertyOp6
 70
     1
102
RTVSPropertyOp7
 70
     1
102
RTVSPropertyOp8
 70
     1
102
RTVSPropertyOp9
 70
     1
102
RTVSPropertyOp10
 70
     1
102
RTVSPropertyOp11
 70
     1
102
RTVSPropertyOp12
 70
     1
102
RTVSPropertyOp13
 70
     1
102
RTVSPropertyOp14
 70
     1
102
RTVSPropertyOp15
 70
     1
102
RTVSPropertyOp16
 70
     1
102
RTVSPropertyOp17
 70
     1
102
RTVSPropertyOp18
 70
     1
102
RTVSPropertyOp19
 70
     1
102
RTVSPropertyOp20
 70
     1
102
RTVSPropertyOp21
 70
     1
102
RTVSPropertyOp22
 70
     1
102
RTVSPropertyOp23
 70
     1
102
RTVSPropertyOp24
 70
     1
102
RTVSPropertyOp25
 70
     1
102
RTVSPropertyOp26
 70
     1
102
RTVSPropertyOp27
 70
     1
102
RTVSPropertyOp28
 70
     1
102
RTVSPropertyOp29
 70
     1
102
RTVSPropertyOp30
 70
     1
102
RTVSPropertyOp31
 70
     1
102
RTVSPropertyOp32
 70
     1
102
RTVSPropertyOp33
 70
     1
102
RTVSPropertyOp34
 70
     1
102
RTVSPropertyOp35
 70
     1
102
RTVSPropertyOp36
 70
     1
102
RTVSPropertyOp37
 70
     1
102
RTVSPropertyOp38
 70
     1
102
RTVSPropertyOp39
 70
     1
102
RTVSPropertyOp40
 70
     1
102
RTVSPropertyOp41
 70
     1
102
RTVSPropertyOp42
 70
     1
102
RTVSPropertyOp43
 70
     1
102
RTVSPropertyOp44
 70
     1
102
RTVSPropertyOp45
 70
     1
102
RTVSPropertyOp46
 70
     1
102
RTVSPropertyOp47
 70
     1
102
RTVSPropertyOp48
 70
     1
102
RTVSPropertyOp49
 70
     1
102
RTVSPropertyOp50
 70
     1
102
RTVSPropertyOp51
 70
     0
102
RTVSPropertyOp52
 70
     0
102
RTVSPropertyOp53
 70
     1
102
RTVSPropertyOp54
 70
     1
102
RTVSPropertyOp55
 70
     1
102
RTVSPropertyOp56
 70
     1
102
RTVSPropertyOp57
 70
     1
102
RTVSPost2010Prop28
280
     0
102
RTVSPost2010PropOp28
 70
     1
102
RTVSPost2010Prop29
280
     1
102
RTVSPost2010PropOp29
 70
     1
102
RTVSPost2010Prop30
280
     1
102
RTVSPost2010PropOp30
 70
     1
102
RTVSPost2010Prop31
280
     0
102
RTVSPost2010PropOp31
 70
     1
102
RTVSPost2010Prop32
280
     0
102
RTVSPost2010PropOp32
 70
     1
102
RTVSPost2010Prop33
280
     0
102
RTVSPost2010PropOp33
 70
     1
102
RTVSPost2010Prop34
280
     0
102
RTVSPost2010PropOp34
 70
     1
102
RTVSPost2010Prop35
280
     0
102
RTVSPost2010PropOp35
 70
     1
102
RTVSPost2010Prop36
280
     0
102
RTVSPost2010PropOp36
 70
     1
102
RTVSPost2010Prop37
 90
       50
102
RTVSPost2010PropOp37
 70
     1
102
RTVSPost2010Prop38
140
0.0
102
RTVSPost2010PropOp38
 70
     1
102
RTVSPost2010Prop39
140
1.0
102
RTVSPost2010PropOp39
 70
     1
102
RTVSPost2010Prop40
 90
        0
102
RTVSPost2010PropOp40
 70
     1
102
RTVSPost2010Prop41ColorIndex
 90
       18
102
RTVSPost2010Prop41ColorRGB
 90
        0
102
RTVSPost2010PropOp41
 70
     1
102
RTVSPost2010Prop42
 90
       50
102
RTVSPost2010PropOp42
 70
     1
102
RTVSPost2010Prop43
 90
        3
102
RTVSPost2010PropOp43
 70
     1
102
RTVSPost2010Prop44ColorIndex
 90
        5
102
RTVSPost2010Prop44ColorRGB
 90
      255
102
RTVSPost2010PropOp44
 70
     1
102
RTVSPost2010Prop45
280
     0
102
RTVSPost2010PropOp45
 70
     1
102
RTVSPost2010Prop46
 90
       50
102
RTVSPost2010PropOp46
 70
     1
102
RTVSPost2010Prop47
 90
       50
102
RTVSPost2010PropOp47
 70
     1
102
RTVSPost2010Prop48
 90
       50
102
RTVSPost2010PropOp48
 70
     1
102
RTVSPost2010Prop49
280
     0
102
RTVSPost2010PropOp49
 70
     1
102
RTVSPost2010Prop50
 90
       50
102
RTVSPost2010PropOp50
 70
     1
102
RTVSPost2010Prop51ColorIndex
 90
      256
102
RTVSPost2010Prop51ColorRGB
 90
-16777216
102
RTVSPost2010PropOp51
 70
     0
102
RTVSPost2010Prop52
140
1.0
102
RTVSPost2010PropOp52
 70
     0
102
RTVSPost2010Prop53
 90
        2
102
RTVSPost2010PropOp53
 70
     1
102
RTVSPost2010Prop54
  1
strokes_ogs.tif
102
RTVSPost2010PropOp54
 70
     1
102
RTVSPost2010Prop55
280
     0
102
RTVSPost2010PropOp55
 70
     1
102
RTVSPost2010Prop56
140
1.0
102
RTVSPost2010PropOp56
 70
     1
102
RTVSPost2010Prop57
140
1.0
102
RTVSPost2010PropOp57
 70
     1
  0
XRECORD
  5
2DA
102
{ACAD_REACTORS
330
2D9
102
}
330
2D9
100
AcDbXrecord
280
     1
102
RTVSPropertyOp0
 70
     1
102
RTVSPropertyOp1
 70
     1
102
RTVSPropertyOp2
 70
     1
102
RTVSPropertyOp3
 70
     1
102
RTVSPropertyOp4
 70
     1
102
RTVSPropertyOp5
 70
     1
102
RTVSPropertyOp6
 70
     1
102
RTVSPropertyOp7
 70
     1
102
RTVSPropertyOp8
 70
     1
102
RTVSPropertyOp9
 70
     1
102
RTVSPropertyOp10
 70
     1
102
RTVSPropertyOp11
 70
     1
102
RTVSPropertyOp12
 70
     1
102
RTVSPropertyOp13
 70
     1
102
RTVSPropertyOp14
 70
     1
102
RTVSPropertyOp15
 70
     1
102
RTVSPropertyOp16
 70
     1
102
RTVSPropertyOp17
 70
     1
102
RTVSPropertyOp18
 70
     1
102
RTVSPropertyOp19
 70
     1
102
RTVSPropertyOp20
 70
     1
102
RTVSPropertyOp21
 70
     1
102
RTVSPropertyOp22
 70
     1
102
RTVSPropertyOp23
 70
     1
102
RTVSPropertyOp24
 70
     1
102
RTVSPropertyOp25
 70
     1
102
RTVSPropertyOp26
 70
     1
102
RTVSPropertyOp27
 70
     1
102
RTVSPropertyOp28
 70
     1
102
RTVSPropertyOp29
 70
     1
102
RTVSPropertyOp30
 70
     1
102
RTVSPropertyOp31
 70
     1
102
RTVSPropertyOp32
 70
     1
102
RTVSPropertyOp33
 70
     1
102
RTVSPropertyOp34
 70
     1
102
RTVSPropertyOp35
 70
     1
102
RTVSPropertyOp36
 70
     1
102
RTVSPropertyOp37
 70
     1
102
RTVSPropertyOp38
 70
     1
102
RTVSPropertyOp39
 70
     1
102
RTVSPropertyOp40
 70
     1
102
RTVSPropertyOp41
 70
     1
102
RTVSPropertyOp42
 70
     1
102
RTVSPropertyOp43
 70
     1
102
RTVSPropertyOp44
 70
     1
102
RTVSPropertyOp45
 70
     1
102
RTVSPropertyOp46
 70
     1
102
RTVSPropertyOp47
 70
     1
102
RTVSPropertyOp48
 70
     1
102
RTVSPropertyOp49
 70
     1
102
RTVSPropertyOp50
 70
     1
102
RTVSPropertyOp51
 70
     0
102
RTVSPropertyOp52
 70
     0
102
RTVSPropertyOp53
 70
     1
102
RTVSPropertyOp54
 70
     1
102
RTVSPropertyOp55
 70
     1
102
RTVSPropertyOp56
 70
     1
102
RTVSPropertyOp57
 70
     1
102
RTVSPost2010Prop28
280
     0
102
RTVSPost2010PropOp28
 70
     1
102
RTVSPost2010Prop29
280
     1
102
RTVSPost2010PropOp29
 70
     1
102
RTVSPost2010Prop30
280
     1
102
RTVSPost2010PropOp30
 70
     1
102
RTVSPost2010Prop31
280
     0
102
RTVSPost2010PropOp31
 70
     1
102
RTVSPost2010Prop32
280
     0
102
RTVSPost2010PropOp32
 70
     1
102
RTVSPost2010Prop33
280
     0
102
RTVSPost2010PropOp33
 70
     1
102
RTVSPost2010Prop34
280
     0
102
RTVSPost2010PropOp34
 70
     1
102
RTVSPost2010Prop35
280
     0
102
RTVSPost2010PropOp35
 70
     1
102
RTVSPost2010Prop36
280
     0
102
RTVSPost2010PropOp36
 70
     1
102
RTVSPost2010Prop37
 90
       50
102
RTVSPost2010PropOp37
 70
     1
102
RTVSPost2010Prop38
140
0.0
102
RTVSPost2010PropOp38
 70
     1
102
RTVSPost2010Prop39
140
1.0
102
RTVSPost2010PropOp39
 70
     1
102
RTVSPost2010Prop40
 90
        0
102
RTVSPost2010PropOp40
 70
     1
102
RTVSPost2010Prop41ColorIndex
 90
       18
102
RTVSPost2010Prop41ColorRGB
 90
        0
102
RTVSPost2010PropOp41
 70
     1
102
RTVSPost2010Prop42
 90
       50
102
RTVSPost2010PropOp42
 70
     1
102
RTVSPost2010Prop43
 90
        3
102
RTVSPost2010PropOp43
 70
     1
102
RTVSPost2010Prop44ColorIndex
 90
        5
102
RTVSPost2010Prop44ColorRGB
 90
      255
102
RTVSPost2010PropOp44
 70
     1
102
RTVSPost2010Prop45
280
     0
102
RTVSPost2010PropOp45
 70
     1
102
RTVSPost2010Prop46
 90
       50
102
RTVSPost2010PropOp46
 70
     1
102
RTVSPost2010Prop47
 90
       50
102
RTVSPost2010PropOp47
 70
     1
102
RTVSPost2010Prop48
 90
       50
102
RTVSPost2010PropOp48
 70
     1
102
RTVSPost2010Prop49
280
     0
102
RTVSPost2010PropOp49
 70
     1
102
RTVSPost2010Prop50
 90
       50
102
RTVSPost2010PropOp50
 70
     1
102
RTVSPost2010Prop51ColorIndex
 90
      256
102
RTVSPost2010Prop51ColorRGB
 90
-16777216
102
RTVSPost2010PropOp51
 70
     0
102
RTVSPost2010Prop52
140
1.0
102
RTVSPost2010PropOp52
 70
     0
102
RTVSPost2010Prop53
 90
        2
102
RTVSPost2010PropOp53
 70
     1
102
RTVSPost2010Prop54
  1
strokes_ogs.tif
102
RTVSPost2010PropOp54
 70
     1
102
RTVSPost2010Prop55
280
     0
102
RTVSPost2010PropOp55
 70
     1
102
RTVSPost2010Prop56
140
1.0
102
RTVSPost2010PropOp56
 70
     1
102
RTVSPost2010Prop57
140
1.0
102
RTVSPost2010PropOp57
 70
     1
  0
XRECORD
  5
2EE
102
{ACAD_REACTORS
330
2ED
102
}
330
2ED
100
AcDbXrecord
280
     1
102
RTVSPropertyOp0
 70
     0
102
RTVSPropertyOp1
 70
     0
102
RTVSPropertyOp2
 70
     0
102
RTVSPropertyOp3
 70
     0
102
RTVSPropertyOp4
 70
     0
102
RTVSPropertyOp5
 70
     0
102
RTVSPropertyOp6
 70
     0
102
RTVSPropertyOp7
 70
     0
102
RTVSPropertyOp8
 70
     0
102
RTVSPropertyOp9
 70
     0
102
RTVSPropertyOp10
 70
     0
102
RTVSPropertyOp11
 70
     0
102
RTVSPropertyOp12
 70
     0
102
RTVSPropertyOp13
 70
     0
102
RTVSPropertyOp14
 70
     2
102
RTVSPropertyOp15
 70
     0
102
RTVSPropertyOp16
 70
     0
102
RTVSPropertyOp17
 70
     0
102
RTVSPropertyOp18
 70
     0
102
RTVSPropertyOp19
 70
     0
102
RTVSPropertyOp20
 70
     0
102
RTVSPropertyOp21
 70
     0
102
RTVSPropertyOp22
 70
     0
102
RTVSPropertyOp23
 70
     0
102
RTVSPropertyOp24
 70
     0
102
RTVSPropertyOp25
 70
     0
102
RTVSPropertyOp26
 70
     0
102
RTVSPropertyOp27
 70
     0
102
RTVSPropertyOp28
 70
     0
102
RTVSPropertyOp29
 70
     0
102
RTVSPropertyOp30
 70
     0
102
RTVSPropertyOp31
 70
     0
102
RTVSPropertyOp32
 70
     0
102
RTVSPropertyOp33
 70
     0
102
RTVSPropertyOp34
 70
     0
102
RTVSPropertyOp35
 70
     0
102
RTVSPropertyOp36
 70
     0
102
RTVSPropertyOp37
 70
     0
102
RTVSPropertyOp38
 70
     0
102
RTVSPropertyOp39
 70
     0
102
RTVSPropertyOp40
 70
     0
102
RTVSPropertyOp41
 70
     0
102
RTVSPropertyOp42
 70
     0
102
RTVSPropertyOp43
 70
     0
102
RTVSPropertyOp44
 70
     0
102
RTVSPropertyOp45
 70
     0
102
RTVSPropertyOp46
 70
     0
102
RTVSPropertyOp47
 70
     0
102
RTVSPropertyOp48
 70
     0
102
RTVSPropertyOp49
 70
     0
102
RTVSPropertyOp50
 70
     0
102
RTVSPropertyOp51
 70
     0
102
RTVSPropertyOp52
 70
     0
102
RTVSPropertyOp53
 70
     0
102
RTVSPropertyOp54
 70
     0
102
RTVSPropertyOp55
 70
     0
102
RTVSPropertyOp56
 70
     0
102
RTVSPropertyOp57
 70
     0
102
RTVSPost2010Prop28
280
     0
102
RTVSPost2010PropOp28
 70
     0
102
RTVSPost2010Prop29
280
     1
102
RTVSPost2010PropOp29
 70
     0
102
RTVSPost2010Prop30
280
     1
102
RTVSPost2010PropOp30
 70
     0
102
RTVSPost2010Prop31
280
     0
102
RTVSPost2010PropOp31
 70
     0
102
RTVSPost2010Prop32
280
     0
102
RTVSPost2010PropOp32
 70
     0
102
RTVSPost2010Prop33
280
     0
102
RTVSPost2010PropOp33
 70
     0
102
RTVSPost2010Prop34
280
     0
102
RTVSPost2010PropOp34
 70
     0
102
RTVSPost2010Prop35
280
     0
102
RTVSPost2010PropOp35
 70
     0
102
RTVSPost2010Prop36
280
     0
102
RTVSPost2010PropOp36
 70
     0
102
RTVSPost2010Prop37
 90
       50
102
RTVSPost2010PropOp37
 70
     0
102
RTVSPost2010Prop38
140
0.0
102
RTVSPost2010PropOp38
 70
     0
102
RTVSPost2010Prop39
140
1.0
102
RTVSPost2010PropOp39
 70
     0
102
RTVSPost2010Prop40
 90
        0
102
RTVSPost2010PropOp40
 70
     0
102
RTVSPost2010Prop41ColorIndex
 90
       18
102
RTVSPost2010Prop41ColorRGB
 90
        0
102
RTVSPost2010PropOp41
 70
     0
102
RTVSPost2010Prop42
 90
       50
102
RTVSPost2010PropOp42
 70
     0
102
RTVSPost2010Prop43
 90
        3
102
RTVSPost2010PropOp43
 70
     0
102
RTVSPost2010Prop44ColorIndex
 90
        5
102
RTVSPost2010Prop44ColorRGB
 90
      255
102
RTVSPost2010PropOp44
 70
     0
102
RTVSPost2010Prop45
280
     0
102
RTVSPost2010PropOp45
 70
     0
102
RTVSPost2010Prop46
 90
       50
102
RTVSPost2010PropOp46
 70
     0
102
RTVSPost2010Prop47
 90
       50
102
RTVSPost2010PropOp47
 70
     0
102
RTVSPost2010Prop48
 90
       50
102
RTVSPost2010PropOp48
 70
     0
102
RTVSPost2010Prop49
280
     0
102
RTVSPost2010PropOp49
 70
     0
102
RTVSPost2010Prop50
 90
       50
102
RTVSPost2010PropOp50
 70
     0
102
RTVSPost2010Prop51ColorIndex
 90
      256
102
RTVSPost2010Prop51ColorRGB
 90
-16777216
102
RTVSPost2010PropOp51
 70
     0
102
RTVSPost2010Prop52
140
1.0
102
RTVSPost2010PropOp52
 70
     0
102
RTVSPost2010Prop53
 90
        2
102
RTVSPost2010PropOp53
 70
     0
102
RTVSPost2010Prop54
  1
strokes_ogs.tif
102
RTVSPost2010PropOp54
 70
     0
102
RTVSPost2010Prop55
280
     0
102
RTVSPost2010PropOp55
 70
     0
102
RTVSPost2010Prop56
140
1.0
102
RTVSPost2010PropOp56
 70
     0
102
RTVSPost2010Prop57
140
1.0
102
RTVSPost2010PropOp57
 70
     0
  0
XRECORD
  5
2E8
102
{ACAD_REACTORS
330
2E7
102
}
330
2E7
100
AcDbXrecord
280
     1
102
RTVSPropertyOp0
 70
     1
102
RTVSPropertyOp1
 70
     1
102
RTVSPropertyOp2
 70
     1
102
RTVSPropertyOp3
 70
     1
102
RTVSPropertyOp4
 70
     1
102
RTVSPropertyOp5
 70
     1
102
RTVSPropertyOp6
 70
     1
102
RTVSPropertyOp7
 70
     1
102
RTVSPropertyOp8
 70
     1
102
RTVSPropertyOp9
 70
     1
102
RTVSPropertyOp10
 70
     1
102
RTVSPropertyOp11
 70
     1
102
RTVSPropertyOp12
 70
     1
102
RTVSPropertyOp13
 70
     1
102
RTVSPropertyOp14
 70
     1
102
RTVSPropertyOp15
 70
     1
102
RTVSPropertyOp16
 70
     1
102
RTVSPropertyOp17
 70
     1
102
RTVSPropertyOp18
 70
     1
102
RTVSPropertyOp19
 70
     1
102
RTVSPropertyOp20
 70
     1
102
RTVSPropertyOp21
 70
     1
102
RTVSPropertyOp22
 70
     1
102
RTVSPropertyOp23
 70
     1
102
RTVSPropertyOp24
 70
     1
102
RTVSPropertyOp25
 70
     1
102
RTVSPropertyOp26
 70
     1
102
RTVSPropertyOp27
 70
     1
102
RTVSPropertyOp28
 70
     1
102
RTVSPropertyOp29
 70
     1
102
RTVSPropertyOp30
 70
     1
102
RTVSPropertyOp31
 70
     1
102
RTVSPropertyOp32
 70
     1
102
RTVSPropertyOp33
 70
     1
102
RTVSPropertyOp34
 70
     1
102
RTVSPropertyOp35
 70
     1
102
RTVSPropertyOp36
 70
     1
102
RTVSPropertyOp37
 70
     1
102
RTVSPropertyOp38
 70
     1
102
RTVSPropertyOp39
 70
     1
102
RTVSPropertyOp40
 70
     1
102
RTVSPropertyOp41
 70
     1
102
RTVSPropertyOp42
 70
     1
102
RTVSPropertyOp43
 70
     1
102
RTVSPropertyOp44
 70
     1
102
RTVSPropertyOp45
 70
     1
102
RTVSPropertyOp46
 70
     1
102
RTVSPropertyOp47
 70
     1
102
RTVSPropertyOp48
 70
     1
102
RTVSPropertyOp49
 70
     1
102
RTVSPropertyOp50
 70
     1
102
RTVSPropertyOp51
 70
     0
102
RTVSPropertyOp52
 70
     0
102
RTVSPropertyOp53
 70
     1
102
RTVSPropertyOp54
 70
     1
102
RTVSPropertyOp55
 70
     1
102
RTVSPropertyOp56
 70
     1
102
RTVSPropertyOp57
 70
     1
102
RTVSPost2010Prop28
280
     0
102
RTVSPost2010PropOp28
 70
     1
102
RTVSPost2010Prop29
280
     1
102
RTVSPost2010PropOp29
 70
     1
102
RTVSPost2010Prop30
280
     1
102
RTVSPost2010PropOp30
 70
     1
102
RTVSPost2010Prop31
280
     0
102
RTVSPost2010PropOp31
 70
     1
102
RTVSPost2010Prop32
280
     0
102
RTVSPost2010PropOp32
 70
     1
102
RTVSPost2010Prop33
280
     0
102
RTVSPost2010PropOp33
 70
     1
102
RTVSPost2010Prop34
280
     0
102
RTVSPost2010PropOp34
 70
     1
102
RTVSPost2010Prop35
280
     0
102
RTVSPost2010PropOp35
 70
     1
102
RTVSPost2010Prop36
280
     0
102
RTVSPost2010PropOp36
 70
     1
102
RTVSPost2010Prop37
 90
       50
102
RTVSPost2010PropOp37
 70
     1
102
RTVSPost2010Prop38
140
0.0
102
RTVSPost2010PropOp38
 70
     1
102
RTVSPost2010Prop39
140
1.0
102
RTVSPost2010PropOp39
 70
     1
102
RTVSPost2010Prop40
 90
        0
102
RTVSPost2010PropOp40
 70
     1
102
RTVSPost2010Prop41ColorIndex
 90
       18
102
RTVSPost2010Prop41ColorRGB
 90
        0
102
RTVSPost2010PropOp41
 70
     1
102
RTVSPost2010Prop42
 90
       50
102
RTVSPost2010PropOp42
 70
     1
102
RTVSPost2010Prop43
 90
        3
102
RTVSPost2010PropOp43
 70
     1
102
RTVSPost2010Prop44ColorIndex
 90
        5
102
RTVSPost2010Prop44ColorRGB
 90
      255
102
RTVSPost2010PropOp44
 70
     1
102
RTVSPost2010Prop45
280
     0
102
RTVSPost2010PropOp45
 70
     1
102
RTVSPost2010Prop46
 90
       50
102
RTVSPost2010PropOp46
 70
     1
102
RTVSPost2010Prop47
 90
       50
102
RTVSPost2010PropOp47
 70
     1
102
RTVSPost2010Prop48
 90
       50
102
RTVSPost2010PropOp48
 70
     1
102
RTVSPost2010Prop49
280
     0
102
RTVSPost2010PropOp49
 70
     1
102
RTVSPost2010Prop50
 90
       50
102
RTVSPost2010PropOp50
 70
     1
102
RTVSPost2010Prop51ColorIndex
 90
      256
102
RTVSPost2010Prop51ColorRGB
 90
-16777216
102
RTVSPost2010PropOp51
 70
     0
102
RTVSPost2010Prop52
140
1.0
102
RTVSPost2010PropOp52
 70
     0
102
RTVSPost2010Prop53
 90
        2
102
RTVSPost2010PropOp53
 70
     1
102
RTVSPost2010Prop54
  1
strokes_ogs.tif
102
RTVSPost2010PropOp54
 70
     1
102
RTVSPost2010Prop55
280
     0
102
RTVSPost2010PropOp55
 70
     1
102
RTVSPost2010Prop56
140
1.0
102
RTVSPost2010PropOp56
 70
     1
102
RTVSPost2010Prop57
140
1.0
102
RTVSPost2010PropOp57
 70
     1
  0
XRECORD
  5
2F0
102
{ACAD_REACTORS
330
2EF
102
}
330
2EF
100
AcDbXrecord
280
     1
102
RTVSPropertyOp0
 70
     0
102
RTVSPropertyOp1
 70
     0
102
RTVSPropertyOp2
 70
     0
102
RTVSPropertyOp3
 70
     0
102
RTVSPropertyOp4
 70
     0
102
RTVSPropertyOp5
 70
     0
102
RTVSPropertyOp6
 70
     0
102
RTVSPropertyOp7
 70
     0
102
RTVSPropertyOp8
 70
     0
102
RTVSPropertyOp9
 70
     0
102
RTVSPropertyOp10
 70
     0
102
RTVSPropertyOp11
 70
     0
102
RTVSPropertyOp12
 70
     0
102
RTVSPropertyOp13
 70
     0
102
RTVSPropertyOp14
 70
     2
102
RTVSPropertyOp15
 70
     0
102
RTVSPropertyOp16
 70
     0
102
RTVSPropertyOp17
 70
     0
102
RTVSPropertyOp18
 70
     0
102
RTVSPropertyOp19
 70
     0
102
RTVSPropertyOp20
 70
     0
102
RTVSPropertyOp21
 70
     0
102
RTVSPropertyOp22
 70
     0
102
RTVSPropertyOp23
 70
     0
102
RTVSPropertyOp24
 70
     0
102
RTVSPropertyOp25
 70
     0
102
RTVSPropertyOp26
 70
     0
102
RTVSPropertyOp27
 70
     0
102
RTVSPropertyOp28
 70
     0
102
RTVSPropertyOp29
 70
     0
102
RTVSPropertyOp30
 70
     0
102
RTVSPropertyOp31
 70
     0
102
RTVSPropertyOp32
 70
     0
102
RTVSPropertyOp33
 70
     0
102
RTVSPropertyOp34
 70
     0
102
RTVSPropertyOp35
 70
     0
102
RTVSPropertyOp36
 70
     0
102
RTVSPropertyOp37
 70
     0
102
RTVSPropertyOp38
 70
     0
102
RTVSPropertyOp39
 70
     0
102
RTVSPropertyOp40
 70
     0
102
RTVSPropertyOp41
 70
     0
102
RTVSPropertyOp42
 70
     0
102
RTVSPropertyOp43
 70
     0
102
RTVSPropertyOp44
 70
     0
102
RTVSPropertyOp45
 70
     0
102
RTVSPropertyOp46
 70
     0
102
RTVSPropertyOp47
 70
     0
102
RTVSPropertyOp48
 70
     0
102
RTVSPropertyOp49
 70
     0
102
RTVSPropertyOp50
 70
     0
102
RTVSPropertyOp51
 70
     0
102
RTVSPropertyOp52
 70
     0
102
RTVSPropertyOp53
 70
     0
102
RTVSPropertyOp54
 70
     0
102
RTVSPropertyOp55
 70
     0
102
RTVSPropertyOp56
 70
     0
102
RTVSPropertyOp57
 70
     0
102
RTVSPost2010Prop28
280
     0
102
RTVSPost2010PropOp28
 70
     0
102
RTVSPost2010Prop29
280
     1
102
RTVSPost2010PropOp29
 70
     0
102
RTVSPost2010Prop30
280
     1
102
RTVSPost2010PropOp30
 70
     0
102
RTVSPost2010Prop31
280
     0
102
RTVSPost2010PropOp31
 70
     0
102
RTVSPost2010Prop32
280
     0
102
RTVSPost2010PropOp32
 70
     0
102
RTVSPost2010Prop33
280
     0
102
RTVSPost2010PropOp33
 70
     0
102
RTVSPost2010Prop34
280
     0
102
RTVSPost2010PropOp34
 70
     0
102
RTVSPost2010Prop35
280
     0
102
RTVSPost2010PropOp35
 70
     0
102
RTVSPost2010Prop36
280
     0
102
RTVSPost2010PropOp36
 70
     0
102
RTVSPost2010Prop37
 90
       50
102
RTVSPost2010PropOp37
 70
     0
102
RTVSPost2010Prop38
140
0.0
102
RTVSPost2010PropOp38
 70
     0
102
RTVSPost2010Prop39
140
1.0
102
RTVSPost2010PropOp39
 70
     0
102
RTVSPost2010Prop40
 90
        0
102
RTVSPost2010PropOp40
 70
     0
102
RTVSPost2010Prop41ColorIndex
 90
       18
102
RTVSPost2010Prop41ColorRGB
 90
        0
102
RTVSPost2010PropOp41
 70
     0
102
RTVSPost2010Prop42
 90
       50
102
RTVSPost2010PropOp42
 70
     0
102
RTVSPost2010Prop43
 90
        3
102
RTVSPost2010PropOp43
 70
     0
102
RTVSPost2010Prop44ColorIndex
 90
        5
102
RTVSPost2010Prop44ColorRGB
 90
      255
102
RTVSPost2010PropOp44
 70
     0
102
RTVSPost2010Prop45
280
     0
102
RTVSPost2010PropOp45
 70
     0
102
RTVSPost2010Prop46
 90
       50
102
RTVSPost2010PropOp46
 70
     0
102
RTVSPost2010Prop47
 90
       50
102
RTVSPost2010PropOp47
 70
     0
102
RTVSPost2010Prop48
 90
       50
102
RTVSPost2010PropOp48
 70
     0
102
RTVSPost2010Prop49
280
     0
102
RTVSPost2010PropOp49
 70
     0
102
RTVSPost2010Prop50
 90
       50
102
RTVSPost2010PropOp50
 70
     0
102
RTVSPost2010Prop51ColorIndex
 90
      256
102
RTVSPost2010Prop51ColorRGB
 90
-16777216
102
RTVSPost2010PropOp51
 70
     0
102
RTVSPost2010Prop52
140
1.0
102
RTVSPost2010PropOp52
 70
     0
102
RTVSPost2010Prop53
 90
        2
102
RTVSPost2010PropOp53
 70
     0
102
RTVSPost2010Prop54
  1
strokes_ogs.tif
102
RTVSPost2010PropOp54
 70
     0
102
RTVSPost2010Prop55
280
     0
102
RTVSPost2010PropOp55
 70
     0
102
RTVSPost2010Prop56
140
1.0
102
RTVSPost2010PropOp56
 70
     0
102
RTVSPost2010Prop57
140
1.0
102
RTVSPost2010PropOp57
 70
     0
  0
XRECORD
  5
2DE
102
{ACAD_REACTORS
330
2DD
102
}
330
2DD
100
AcDbXrecord
280
     1
102
RTVSPropertyOp0
 70
     1
102
RTVSPropertyOp1
 70
     1
102
RTVSPropertyOp2
 70
     1
102
RTVSPropertyOp3
 70
     1
102
RTVSPropertyOp4
 70
     1
102
RTVSPropertyOp5
 70
     1
102
RTVSPropertyOp6
 70
     1
102
RTVSPropertyOp7
 70
     1
102
RTVSPropertyOp8
 70
     1
102
RTVSPropertyOp9
 70
     1
102
RTVSPropertyOp10
 70
     1
102
RTVSPropertyOp11
 70
     1
102
RTVSPropertyOp12
 70
     1
102
RTVSPropertyOp13
 70
     1
102
RTVSPropertyOp14
 70
     1
102
RTVSPropertyOp15
 70
     1
102
RTVSPropertyOp16
 70
     1
102
RTVSPropertyOp17
 70
     1
102
RTVSPropertyOp18
 70
     1
102
RTVSPropertyOp19
 70
     1
102
RTVSPropertyOp20
 70
     1
102
RTVSPropertyOp21
 70
     1
102
RTVSPropertyOp22
 70
     1
102
RTVSPropertyOp23
 70
     1
102
RTVSPropertyOp24
 70
     1
102
RTVSPropertyOp25
 70
     1
102
RTVSPropertyOp26
 70
     1
102
RTVSPropertyOp27
 70
     1
102
RTVSPropertyOp28
 70
     1
102
RTVSPropertyOp29
 70
     1
102
RTVSPropertyOp30
 70
     1
102
RTVSPropertyOp31
 70
     1
102
RTVSPropertyOp32
 70
     1
102
RTVSPropertyOp33
 70
     1
102
RTVSPropertyOp34
 70
     1
102
RTVSPropertyOp35
 70
     1
102
RTVSPropertyOp36
 70
     1
102
RTVSPropertyOp37
 70
     1
102
RTVSPropertyOp38
 70
     1
102
RTVSPropertyOp39
 70
     1
102
RTVSPropertyOp40
 70
     1
102
RTVSPropertyOp41
 70
     1
102
RTVSPropertyOp42
 70
     1
102
RTVSPropertyOp43
 70
     1
102
RTVSPropertyOp44
 70
     1
102
RTVSPropertyOp45
 70
     1
102
RTVSPropertyOp46
 70
     1
102
RTVSPropertyOp47
 70
     1
102
RTVSPropertyOp48
 70
     1
102
RTVSPropertyOp49
 70
     1
102
RTVSPropertyOp50
 70
     1
102
RTVSPropertyOp51
 70
     0
102
RTVSPropertyOp52
 70
     0
102
RTVSPropertyOp53
 70
     1
102
RTVSPropertyOp54
 70
     1
102
RTVSPropertyOp55
 70
     1
102
RTVSPropertyOp56
 70
     1
102
RTVSPropertyOp57
 70
     1
102
RTVSPost2010Prop28
280
     0
102
RTVSPost2010PropOp28
 70
     1
102
RTVSPost2010Prop29
280
     1
102
RTVSPost2010PropOp29
 70
     1
102
RTVSPost2010Prop30
280
     1
102
RTVSPost2010PropOp30
 70
     1
102
RTVSPost2010Prop31
280
     0
102
RTVSPost2010PropOp31
 70
     1
102
RTVSPost2010Prop32
280
     0
102
RTVSPost2010PropOp32
 70
     1
102
RTVSPost2010Prop33
280
     0
102
RTVSPost2010PropOp33
 70
     1
102
RTVSPost2010Prop34
280
     0
102
RTVSPost2010PropOp34
 70
     1
102
RTVSPost2010Prop35
280
     0
102
RTVSPost2010PropOp35
 70
     1
102
RTVSPost2010Prop36
280
     0
102
RTVSPost2010PropOp36
 70
     1
102
RTVSPost2010Prop37
 90
       50
102
RTVSPost2010PropOp37
 70
     1
102
RTVSPost2010Prop38
140
0.0
102
RTVSPost2010PropOp38
 70
     1
102
RTVSPost2010Prop39
140
1.0
102
RTVSPost2010PropOp39
 70
     1
102
RTVSPost2010Prop40
 90
        0
102
RTVSPost2010PropOp40
 70
     1
102
RTVSPost2010Prop41ColorIndex
 90
       18
102
RTVSPost2010Prop41ColorRGB
 90
        0
102
RTVSPost2010PropOp41
 70
     1
102
RTVSPost2010Prop42
 90
       50
102
RTVSPost2010PropOp42
 70
     1
102
RTVSPost2010Prop43
 90
        3
102
RTVSPost2010PropOp43
 70
     1
102
RTVSPost2010Prop44ColorIndex
 90
        5
102
RTVSPost2010Prop44ColorRGB
 90
      255
102
RTVSPost2010PropOp44
 70
     1
102
RTVSPost2010Prop45
280
     0
102
RTVSPost2010PropOp45
 70
     1
102
RTVSPost2010Prop46
 90
       50
102
RTVSPost2010PropOp46
 70
     1
102
RTVSPost2010Prop47
 90
       50
102
RTVSPost2010PropOp47
 70
     1
102
RTVSPost2010Prop48
 90
       50
102
RTVSPost2010PropOp48
 70
     1
102
RTVSPost2010Prop49
280
     0
102
RTVSPost2010PropOp49
 70
     1
102
RTVSPost2010Prop50
 90
       50
102
RTVSPost2010PropOp50
 70
     1
102
RTVSPost2010Prop51ColorIndex
 90
      256
102
RTVSPost2010Prop51ColorRGB
 90
-16777216
102
RTVSPost2010PropOp51
 70
     0
102
RTVSPost2010Prop52
140
1.0
102
RTVSPost2010PropOp52
 70
     0
102
RTVSPost2010Prop53
 90
        2
102
RTVSPost2010PropOp53
 70
     1
102
RTVSPost2010Prop54
  1
strokes_ogs.tif
102
RTVSPost2010PropOp54
 70
     1
102
RTVSPost2010Prop55
280
     0
102
RTVSPost2010PropOp55
 70
     1
102
RTVSPost2010Prop56
140
1.0
102
RTVSPost2010PropOp56
 70
     1
102
RTVSPost2010Prop57
140
1.0
102
RTVSPost2010PropOp57
 70
     1
  0
XRECORD
  5
2FC
102
{ACAD_REACTORS
330
2FB
102
}
330
2FB
100
AcDbXrecord
280
     1
102
RTVSPropertyOp0
 70
     1
102
RTVSPropertyOp1
 70
     1
102
RTVSPropertyOp2
 70
     1
102
RTVSPropertyOp3
 70
     1
102
RTVSPropertyOp4
 70
     1
102
RTVSPropertyOp5
 70
     1
102
RTVSPropertyOp6
 70
     1
102
RTVSPropertyOp7
 70
     1
102
RTVSPropertyOp8
 70
     1
102
RTVSPropertyOp9
 70
     1
102
RTVSPropertyOp10
 70
     1
102
RTVSPropertyOp11
 70
     1
102
RTVSPropertyOp12
 70
     1
102
RTVSPropertyOp13
 70
     1
102
RTVSPropertyOp14
 70
     1
102
RTVSPropertyOp15
 70
     1
102
RTVSPropertyOp16
 70
     1
102
RTVSPropertyOp17
 70
     1
102
RTVSPropertyOp18
 70
     1
102
RTVSPropertyOp19
 70
     1
102
RTVSPropertyOp20
 70
     1
102
RTVSPropertyOp21
 70
     1
102
RTVSPropertyOp22
 70
     1
102
RTVSPropertyOp23
 70
     1
102
RTVSPropertyOp24
 70
     1
102
RTVSPropertyOp25
 70
     1
102
RTVSPropertyOp26
 70
     1
102
RTVSPropertyOp27
 70
     1
102
RTVSPropertyOp28
 70
     1
102
RTVSPropertyOp29
 70
     1
102
RTVSPropertyOp30
 70
     1
102
RTVSPropertyOp31
 70
     1
102
RTVSPropertyOp32
 70
     1
102
RTVSPropertyOp33
 70
     1
102
RTVSPropertyOp34
 70
     1
102
RTVSPropertyOp35
 70
     1
102
RTVSPropertyOp36
 70
     1
102
RTVSPropertyOp37
 70
     1
102
RTVSPropertyOp38
 70
     1
102
RTVSPropertyOp39
 70
     1
102
RTVSPropertyOp40
 70
     1
102
RTVSPropertyOp41
 70
     1
102
RTVSPropertyOp42
 70
     1
102
RTVSPropertyOp43
 70
     1
102
RTVSPropertyOp44
 70
     1
102
RTVSPropertyOp45
 70
     1
102
RTVSPropertyOp46
 70
     1
102
RTVSPropertyOp47
 70
     1
102
RTVSPropertyOp48
 70
     1
102
RTVSPropertyOp49
 70
     1
102
RTVSPropertyOp50
 70
     1
102
RTVSPropertyOp51
 70
     0
102
RTVSPropertyOp52
 70
     0
102
RTVSPropertyOp53
 70
     1
102
RTVSPropertyOp54
 70
     1
102
RTVSPropertyOp55
 70
     1
102
RTVSPropertyOp56
 70
     1
102
RTVSPropertyOp57
 70
     1
102
RTVSPost2010Prop28
280
     0
102
RTVSPost2010PropOp28
 70
     1
102
RTVSPost2010Prop29
280
     1
102
RTVSPost2010PropOp29
 70
     1
102
RTVSPost2010Prop30
280
     1
102
RTVSPost2010PropOp30
 70
     1
102
RTVSPost2010Prop31
280
     0
102
RTVSPost2010PropOp31
 70
     1
102
RTVSPost2010Prop32
280
     0
102
RTVSPost2010PropOp32
 70
     1
102
RTVSPost2010Prop33
280
     0
102
RTVSPost2010PropOp33
 70
     1
102
RTVSPost2010Prop34
280
     0
102
RTVSPost2010PropOp34
 70
     1
102
RTVSPost2010Prop35
280
     0
102
RTVSPost2010PropOp35
 70
     1
102
RTVSPost2010Prop36
280
     0
102
RTVSPost2010PropOp36
 70
     1
102
RTVSPost2010Prop37
 90
       50
102
RTVSPost2010PropOp37
 70
     1
102
RTVSPost2010Prop38
140
0.0
102
RTVSPost2010PropOp38
 70
     1
102
RTVSPost2010Prop39
140
1.0
102
RTVSPost2010PropOp39
 70
     1
102
RTVSPost2010Prop40
 90
        0
102
RTVSPost2010PropOp40
 70
     1
102
RTVSPost2010Prop41ColorIndex
 90
       18
102
RTVSPost2010Prop41ColorRGB
 90
        0
102
RTVSPost2010PropOp41
 70
     1
102
RTVSPost2010Prop42
 90
       50
102
RTVSPost2010PropOp42
 70
     1
102
RTVSPost2010Prop43
 90
        3
102
RTVSPost2010PropOp43
 70
     1
102
RTVSPost2010Prop44ColorIndex
 90
        5
102
RTVSPost2010Prop44ColorRGB
 90
      255
102
RTVSPost2010PropOp44
 70
     1
102
RTVSPost2010Prop45
280
     0
102
RTVSPost2010PropOp45
 70
     1
102
RTVSPost2010Prop46
 90
       50
102
RTVSPost2010PropOp46
 70
     1
102
RTVSPost2010Prop47
 90
       50
102
RTVSPost2010PropOp47
 70
     1
102
RTVSPost2010Prop48
 90
       50
102
RTVSPost2010PropOp48
 70
     1
102
RTVSPost2010Prop49
280
     0
102
RTVSPost2010PropOp49
 70
     1
102
RTVSPost2010Prop50
 90
       50
102
RTVSPost2010PropOp50
 70
     1
102
RTVSPost2010Prop51ColorIndex
 90
      256
102
RTVSPost2010Prop51ColorRGB
 90
-16777216
102
RTVSPost2010PropOp51
 70
     0
102
RTVSPost2010Prop52
140
1.0
102
RTVSPost2010PropOp52
 70
     0
102
RTVSPost2010Prop53
 90
        2
102
RTVSPost2010PropOp53
 70
     1
102
RTVSPost2010Prop54
  1
strokes_ogs.tif
102
RTVSPost2010PropOp54
 70
     1
102
RTVSPost2010Prop55
280
     0
102
RTVSPost2010PropOp55
 70
     1
102
RTVSPost2010Prop56
140
1.0
102
RTVSPost2010PropOp56
 70
     1
102
RTVSPost2010Prop57
140
1.0
102
RTVSPost2010PropOp57
 70
     1
  0
XRECORD
  5
2FA
102
{ACAD_REACTORS
330
2F9
102
}
330
2F9
100
AcDbXrecord
280
     1
102
RTVSPropertyOp0
 70
     1
102
RTVSPropertyOp1
 70
     1
102
RTVSPropertyOp2
 70
     1
102
RTVSPropertyOp3
 70
     1
102
RTVSPropertyOp4
 70
     1
102
RTVSPropertyOp5
 70
     1
102
RTVSPropertyOp6
 70
     1
102
RTVSPropertyOp7
 70
     1
102
RTVSPropertyOp8
 70
     1
102
RTVSPropertyOp9
 70
     1
102
RTVSPropertyOp10
 70
     1
102
RTVSPropertyOp11
 70
     1
102
RTVSPropertyOp12
 70
     1
102
RTVSPropertyOp13
 70
     1
102
RTVSPropertyOp14
 70
     1
102
RTVSPropertyOp15
 70
     1
102
RTVSPropertyOp16
 70
     1
102
RTVSPropertyOp17
 70
     1
102
RTVSPropertyOp18
 70
     1
102
RTVSPropertyOp19
 70
     1
102
RTVSPropertyOp20
 70
     1
102
RTVSPropertyOp21
 70
     1
102
RTVSPropertyOp22
 70
     1
102
RTVSPropertyOp23
 70
     1
102
RTVSPropertyOp24
 70
     1
102
RTVSPropertyOp25
 70
     1
102
RTVSPropertyOp26
 70
     1
102
RTVSPropertyOp27
 70
     1
102
RTVSPropertyOp28
 70
     1
102
RTVSPropertyOp29
 70
     1
102
RTVSPropertyOp30
 70
     1
102
RTVSPropertyOp31
 70
     1
102
RTVSPropertyOp32
 70
     1
102
RTVSPropertyOp33
 70
     1
102
RTVSPropertyOp34
 70
     1
102
RTVSPropertyOp35
 70
     1
102
RTVSPropertyOp36
 70
     1
102
RTVSPropertyOp37
 70
     1
102
RTVSPropertyOp38
 70
     1
102
RTVSPropertyOp39
 70
     1
102
RTVSPropertyOp40
 70
     1
102
RTVSPropertyOp41
 70
     1
102
RTVSPropertyOp42
 70
     1
102
RTVSPropertyOp43
 70
     1
102
RTVSPropertyOp44
 70
     1
102
RTVSPropertyOp45
 70
     1
102
RTVSPropertyOp46
 70
     1
102
RTVSPropertyOp47
 70
     1
102
RTVSPropertyOp48
 70
     1
102
RTVSPropertyOp49
 70
     1
102
RTVSPropertyOp50
 70
     1
102
RTVSPropertyOp51
 70
     0
102
RTVSPropertyOp52
 70
     0
102
RTVSPropertyOp53
 70
     1
102
RTVSPropertyOp54
 70
     1
102
RTVSPropertyOp55
 70
     1
102
RTVSPropertyOp56
 70
     1
102
RTVSPropertyOp57
 70
     1
102
RTVSPost2010Prop28
280
     0
102
RTVSPost2010PropOp28
 70
     1
102
RTVSPost2010Prop29
280
     1
102
RTVSPost2010PropOp29
 70
     1
102
RTVSPost2010Prop30
280
     1
102
RTVSPost2010PropOp30
 70
     1
102
RTVSPost2010Prop31
280
     0
102
RTVSPost2010PropOp31
 70
     1
102
RTVSPost2010Prop32
280
     0
102
RTVSPost2010PropOp32
 70
     1
102
RTVSPost2010Prop33
280
     0
102
RTVSPost2010PropOp33
 70
     1
102
RTVSPost2010Prop34
280
     0
102
RTVSPost2010PropOp34
 70
     1
102
RTVSPost2010Prop35
280
     0
102
RTVSPost2010PropOp35
 70
     1
102
RTVSPost2010Prop36
280
     0
102
RTVSPost2010PropOp36
 70
     1
102
RTVSPost2010Prop37
 90
       50
102
RTVSPost2010PropOp37
 70
     1
102
RTVSPost2010Prop38
140
0.0
102
RTVSPost2010PropOp38
 70
     1
102
RTVSPost2010Prop39
140
1.0
102
RTVSPost2010PropOp39
 70
     1
102
RTVSPost2010Prop40
 90
        0
102
RTVSPost2010PropOp40
 70
     1
102
RTVSPost2010Prop41ColorIndex
 90
       18
102
RTVSPost2010Prop41ColorRGB
 90
        0
102
RTVSPost2010PropOp41
 70
     1
102
RTVSPost2010Prop42
 90
       50
102
RTVSPost2010PropOp42
 70
     1
102
RTVSPost2010Prop43
 90
        3
102
RTVSPost2010PropOp43
 70
     1
102
RTVSPost2010Prop44ColorIndex
 90
        5
102
RTVSPost2010Prop44ColorRGB
 90
      255
102
RTVSPost2010PropOp44
 70
     1
102
RTVSPost2010Prop45
280
     0
102
RTVSPost2010PropOp45
 70
     1
102
RTVSPost2010Prop46
 90
       50
102
RTVSPost2010PropOp46
 70
     1
102
RTVSPost2010Prop47
 90
       50
102
RTVSPost2010PropOp47
 70
     1
102
RTVSPost2010Prop48
 90
       50
102
RTVSPost2010PropOp48
 70
     1
102
RTVSPost2010Prop49
280
     0
102
RTVSPost2010PropOp49
 70
     1
102
RTVSPost2010Prop50
 90
       50
102
RTVSPost2010PropOp50
 70
     1
102
RTVSPost2010Prop51ColorIndex
 90
      256
102
RTVSPost2010Prop51ColorRGB
 90
-16777216
102
RTVSPost2010PropOp51
 70
     0
102
RTVSPost2010Prop52
140
1.0
102
RTVSPost2010PropOp52
 70
     0
102
RTVSPost2010Prop53
 90
        2
102
RTVSPost2010PropOp53
 70
     1
102
RTVSPost2010Prop54
  1
strokes_ogs.tif
102
RTVSPost2010PropOp54
 70
     1
102
RTVSPost2010Prop55
280
     0
102
RTVSPost2010PropOp55
 70
     1
102
RTVSPost2010Prop56
140
1.0
102
RTVSPost2010PropOp56
 70
     1
102
RTVSPost2010Prop57
140
1.0
102
RTVSPost2010PropOp57
 70
     1
  0
XRECORD
  5
2F4
102
{ACAD_REACTORS
330
2F3
102
}
330
2F3
100
AcDbXrecord
280
     1
102
RTVSPropertyOp0
 70
     1
102
RTVSPropertyOp1
 70
     1
102
RTVSPropertyOp2
 70
     1
102
RTVSPropertyOp3
 70
     1
102
RTVSPropertyOp4
 70
     1
102
RTVSPropertyOp5
 70
     1
102
RTVSPropertyOp6
 70
     1
102
RTVSPropertyOp7
 70
     1
102
RTVSPropertyOp8
 70
     1
102
RTVSPropertyOp9
 70
     1
102
RTVSPropertyOp10
 70
     1
102
RTVSPropertyOp11
 70
     1
102
RTVSPropertyOp12
 70
     1
102
RTVSPropertyOp13
 70
     1
102
RTVSPropertyOp14
 70
     1
102
RTVSPropertyOp15
 70
     1
102
RTVSPropertyOp16
 70
     1
102
RTVSPropertyOp17
 70
     1
102
RTVSPropertyOp18
 70
     1
102
RTVSPropertyOp19
 70
     1
102
RTVSPropertyOp20
 70
     1
102
RTVSPropertyOp21
 70
     1
102
RTVSPropertyOp22
 70
     1
102
RTVSPropertyOp23
 70
     1
102
RTVSPropertyOp24
 70
     1
102
RTVSPropertyOp25
 70
     1
102
RTVSPropertyOp26
 70
     1
102
RTVSPropertyOp27
 70
     1
102
RTVSPropertyOp28
 70
     1
102
RTVSPropertyOp29
 70
     1
102
RTVSPropertyOp30
 70
     1
102
RTVSPropertyOp31
 70
     1
102
RTVSPropertyOp32
 70
     1
102
RTVSPropertyOp33
 70
     1
102
RTVSPropertyOp34
 70
     1
102
RTVSPropertyOp35
 70
     1
102
RTVSPropertyOp36
 70
     1
102
RTVSPropertyOp37
 70
     1
102
RTVSPropertyOp38
 70
     1
102
RTVSPropertyOp39
 70
     1
102
RTVSPropertyOp40
 70
     1
102
RTVSPropertyOp41
 70
     1
102
RTVSPropertyOp42
 70
     1
102
RTVSPropertyOp43
 70
     1
102
RTVSPropertyOp44
 70
     1
102
RTVSPropertyOp45
 70
     1
102
RTVSPropertyOp46
 70
     1
102
RTVSPropertyOp47
 70
     1
102
RTVSPropertyOp48
 70
     1
102
RTVSPropertyOp49
 70
     1
102
RTVSPropertyOp50
 70
     1
102
RTVSPropertyOp51
 70
     0
102
RTVSPropertyOp52
 70
     0
102
RTVSPropertyOp53
 70
     1
102
RTVSPropertyOp54
 70
     1
102
RTVSPropertyOp55
 70
     1
102
RTVSPropertyOp56
 70
     1
102
RTVSPropertyOp57
 70
     1
102
RTVSPost2010Prop28
280
     0
102
RTVSPost2010PropOp28
 70
     1
102
RTVSPost2010Prop29
280
     1
102
RTVSPost2010PropOp29
 70
     1
102
RTVSPost2010Prop30
280
     1
102
RTVSPost2010PropOp30
 70
     1
102
RTVSPost2010Prop31
280
     0
102
RTVSPost2010PropOp31
 70
     1
102
RTVSPost2010Prop32
280
     0
102
RTVSPost2010PropOp32
 70
     1
102
RTVSPost2010Prop33
280
     0
102
RTVSPost2010PropOp33
 70
     1
102
RTVSPost2010Prop34
280
     0
102
RTVSPost2010PropOp34
 70
     1
102
RTVSPost2010Prop35
280
     0
102
RTVSPost2010PropOp35
 70
     1
102
RTVSPost2010Prop36
280
     0
102
RTVSPost2010PropOp36
 70
     1
102
RTVSPost2010Prop37
 90
       50
102
RTVSPost2010PropOp37
 70
     1
102
RTVSPost2010Prop38
140
0.0
102
RTVSPost2010PropOp38
 70
     1
102
RTVSPost2010Prop39
140
1.0
102
RTVSPost2010PropOp39
 70
     1
102
RTVSPost2010Prop40
 90
        0
102
RTVSPost2010PropOp40
 70
     1
102
RTVSPost2010Prop41ColorIndex
 90
       18
102
RTVSPost2010Prop41ColorRGB
 90
        0
102
RTVSPost2010PropOp41
 70
     1
102
RTVSPost2010Prop42
 90
       50
102
RTVSPost2010PropOp42
 70
     1
102
RTVSPost2010Prop43
 90
        3
102
RTVSPost2010PropOp43
 70
     1
102
RTVSPost2010Prop44ColorIndex
 90
        5
102
RTVSPost2010Prop44ColorRGB
 90
      255
102
RTVSPost2010PropOp44
 70
     1
102
RTVSPost2010Prop45
280
     0
102
RTVSPost2010PropOp45
 70
     1
102
RTVSPost2010Prop46
 90
       50
102
RTVSPost2010PropOp46
 70
     1
102
RTVSPost2010Prop47
 90
       50
102
RTVSPost2010PropOp47
 70
     1
102
RTVSPost2010Prop48
 90
       50
102
RTVSPost2010PropOp48
 70
     1
102
RTVSPost2010Prop49
280
     0
102
RTVSPost2010PropOp49
 70
     1
102
RTVSPost2010Prop50
 90
       50
102
RTVSPost2010PropOp50
 70
     1
102
RTVSPost2010Prop51ColorIndex
 90
      256
102
RTVSPost2010Prop51ColorRGB
 90
-16777216
102
RTVSPost2010PropOp51
 70
     0
102
RTVSPost2010Prop52
140
1.0
102
RTVSPost2010PropOp52
 70
     0
102
RTVSPost2010Prop53
 90
        2
102
RTVSPost2010PropOp53
 70
     1
102
RTVSPost2010Prop54
  1
strokes_ogs.tif
102
RTVSPost2010PropOp54
 70
     1
102
RTVSPost2010Prop55
280
     0
102
RTVSPost2010PropOp55
 70
     1
102
RTVSPost2010Prop56
140
1.0
102
RTVSPost2010PropOp56
 70
     1
102
RTVSPost2010Prop57
140
1.0
102
RTVSPost2010PropOp57
 70
     1
  0
XRECORD
  5
2F6
102
{ACAD_REACTORS
330
2F5
102
}
330
2F5
100
AcDbXrecord
280
     1
102
RTVSPropertyOp0
 70
     1
102
RTVSPropertyOp1
 70
     1
102
RTVSPropertyOp2
 70
     1
102
RTVSPropertyOp3
 70
     1
102
RTVSPropertyOp4
 70
     1
102
RTVSPropertyOp5
 70
     1
102
RTVSPropertyOp6
 70
     1
102
RTVSPropertyOp7
 70
     1
102
RTVSPropertyOp8
 70
     1
102
RTVSPropertyOp9
 70
     1
102
RTVSPropertyOp10
 70
     1
102
RTVSPropertyOp11
 70
     1
102
RTVSPropertyOp12
 70
     1
102
RTVSPropertyOp13
 70
     1
102
RTVSPropertyOp14
 70
     1
102
RTVSPropertyOp15
 70
     1
102
RTVSPropertyOp16
 70
     1
102
RTVSPropertyOp17
 70
     1
102
RTVSPropertyOp18
 70
     1
102
RTVSPropertyOp19
 70
     1
102
RTVSPropertyOp20
 70
     1
102
RTVSPropertyOp21
 70
     1
102
RTVSPropertyOp22
 70
     1
102
RTVSPropertyOp23
 70
     1
102
RTVSPropertyOp24
 70
     1
102
RTVSPropertyOp25
 70
     1
102
RTVSPropertyOp26
 70
     1
102
RTVSPropertyOp27
 70
     1
102
RTVSPropertyOp28
 70
     1
102
RTVSPropertyOp29
 70
     1
102
RTVSPropertyOp30
 70
     1
102
RTVSPropertyOp31
 70
     1
102
RTVSPropertyOp32
 70
     1
102
RTVSPropertyOp33
 70
     1
102
RTVSPropertyOp34
 70
     1
102
RTVSPropertyOp35
 70
     1
102
RTVSPropertyOp36
 70
     1
102
RTVSPropertyOp37
 70
     1
102
RTVSPropertyOp38
 70
     1
102
RTVSPropertyOp39
 70
     1
102
RTVSPropertyOp40
 70
     1
102
RTVSPropertyOp41
 70
     1
102
RTVSPropertyOp42
 70
     1
102
RTVSPropertyOp43
 70
     1
102
RTVSPropertyOp44
 70
     1
102
RTVSPropertyOp45
 70
     1
102
RTVSPropertyOp46
 70
     1
102
RTVSPropertyOp47
 70
     1
102
RTVSPropertyOp48
 70
     1
102
RTVSPropertyOp49
 70
     1
102
RTVSPropertyOp50
 70
     1
102
RTVSPropertyOp51
 70
     0
102
RTVSPropertyOp52
 70
     0
102
RTVSPropertyOp53
 70
     1
102
RTVSPropertyOp54
 70
     1
102
RTVSPropertyOp55
 70
     1
102
RTVSPropertyOp56
 70
     1
102
RTVSPropertyOp57
 70
     1
102
RTVSPost2010Prop28
280
     0
102
RTVSPost2010PropOp28
 70
     1
102
RTVSPost2010Prop29
280
     1
102
RTVSPost2010PropOp29
 70
     1
102
RTVSPost2010Prop30
280
     1
102
RTVSPost2010PropOp30
 70
     1
102
RTVSPost2010Prop31
280
     0
102
RTVSPost2010PropOp31
 70
     1
102
RTVSPost2010Prop32
280
     0
102
RTVSPost2010PropOp32
 70
     1
102
RTVSPost2010Prop33
280
     0
102
RTVSPost2010PropOp33
 70
     1
102
RTVSPost2010Prop34
280
     0
102
RTVSPost2010PropOp34
 70
     1
102
RTVSPost2010Prop35
280
     0
102
RTVSPost2010PropOp35
 70
     1
102
RTVSPost2010Prop36
280
     0
102
RTVSPost2010PropOp36
 70
     1
102
RTVSPost2010Prop37
 90
       50
102
RTVSPost2010PropOp37
 70
     1
102
RTVSPost2010Prop38
140
0.0
102
RTVSPost2010PropOp38
 70
     1
102
RTVSPost2010Prop39
140
1.0
102
RTVSPost2010PropOp39
 70
     1
102
RTVSPost2010Prop40
 90
        0
102
RTVSPost2010PropOp40
 70
     1
102
RTVSPost2010Prop41ColorIndex
 90
       18
102
RTVSPost2010Prop41ColorRGB
 90
        0
102
RTVSPost2010PropOp41
 70
     1
102
RTVSPost2010Prop42
 90
       50
102
RTVSPost2010PropOp42
 70
     1
102
RTVSPost2010Prop43
 90
        3
102
RTVSPost2010PropOp43
 70
     1
102
RTVSPost2010Prop44ColorIndex
 90
        5
102
RTVSPost2010Prop44ColorRGB
 90
      255
102
RTVSPost2010PropOp44
 70
     1
102
RTVSPost2010Prop45
280
     0
102
RTVSPost2010PropOp45
 70
     1
102
RTVSPost2010Prop46
 90
       50
102
RTVSPost2010PropOp46
 70
     1
102
RTVSPost2010Prop47
 90
       50
102
RTVSPost2010PropOp47
 70
     1
102
RTVSPost2010Prop48
 90
       50
102
RTVSPost2010PropOp48
 70
     1
102
RTVSPost2010Prop49
280
     0
102
RTVSPost2010PropOp49
 70
     1
102
RTVSPost2010Prop50
 90
       50
102
RTVSPost2010PropOp50
 70
     1
102
RTVSPost2010Prop51ColorIndex
 90
      256
102
RTVSPost2010Prop51ColorRGB
 90
-16777216
102
RTVSPost2010PropOp51
 70
     0
102
RTVSPost2010Prop52
140
1.0
102
RTVSPost2010PropOp52
 70
     0
102
RTVSPost2010Prop53
 90
        2
102
RTVSPost2010PropOp53
 70
     1
102
RTVSPost2010Prop54
  1
strokes_ogs.tif
102
RTVSPost2010PropOp54
 70
     1
102
RTVSPost2010Prop55
280
     0
102
RTVSPost2010PropOp55
 70
     1
102
RTVSPost2010Prop56
140
1.0
102
RTVSPost2010PropOp56
 70
     1
102
RTVSPost2010Prop57
140
1.0
102
RTVSPost2010PropOp57
 70
     1
  0
XRECORD
  5
2E6
102
{ACAD_REACTORS
330
2E5
102
}
330
2E5
100
AcDbXrecord
280
     1
102
RTVSPropertyOp0
 70
     1
102
RTVSPropertyOp1
 70
     1
102
RTVSPropertyOp2
 70
     1
102
RTVSPropertyOp3
 70
     1
102
RTVSPropertyOp4
 70
     1
102
RTVSPropertyOp5
 70
     1
102
RTVSPropertyOp6
 70
     1
102
RTVSPropertyOp7
 70
     1
102
RTVSPropertyOp8
 70
     1
102
RTVSPropertyOp9
 70
     1
102
RTVSPropertyOp10
 70
     1
102
RTVSPropertyOp11
 70
     1
102
RTVSPropertyOp12
 70
     1
102
RTVSPropertyOp13
 70
     1
102
RTVSPropertyOp14
 70
     1
102
RTVSPropertyOp15
 70
     1
102
RTVSPropertyOp16
 70
     1
102
RTVSPropertyOp17
 70
     1
102
RTVSPropertyOp18
 70
     1
102
RTVSPropertyOp19
 70
     1
102
RTVSPropertyOp20
 70
     1
102
RTVSPropertyOp21
 70
     1
102
RTVSPropertyOp22
 70
     1
102
RTVSPropertyOp23
 70
     1
102
RTVSPropertyOp24
 70
     1
102
RTVSPropertyOp25
 70
     1
102
RTVSPropertyOp26
 70
     1
102
RTVSPropertyOp27
 70
     1
102
RTVSPropertyOp28
 70
     1
102
RTVSPropertyOp29
 70
     1
102
RTVSPropertyOp30
 70
     1
102
RTVSPropertyOp31
 70
     1
102
RTVSPropertyOp32
 70
     1
102
RTVSPropertyOp33
 70
     1
102
RTVSPropertyOp34
 70
     1
102
RTVSPropertyOp35
 70
     1
102
RTVSPropertyOp36
 70
     1
102
RTVSPropertyOp37
 70
     1
102
RTVSPropertyOp38
 70
     1
102
RTVSPropertyOp39
 70
     1
102
RTVSPropertyOp40
 70
     1
102
RTVSPropertyOp41
 70
     1
102
RTVSPropertyOp42
 70
     1
102
RTVSPropertyOp43
 70
     1
102
RTVSPropertyOp44
 70
     1
102
RTVSPropertyOp45
 70
     1
102
RTVSPropertyOp46
 70
     1
102
RTVSPropertyOp47
 70
     1
102
RTVSPropertyOp48
 70
     1
102
RTVSPropertyOp49
 70
     1
102
RTVSPropertyOp50
 70
     1
102
RTVSPropertyOp51
 70
     0
102
RTVSPropertyOp52
 70
     0
102
RTVSPropertyOp53
 70
     1
102
RTVSPropertyOp54
 70
     1
102
RTVSPropertyOp55
 70
     1
102
RTVSPropertyOp56
 70
     1
102
RTVSPropertyOp57
 70
     1
102
RTVSPost2010Prop28
280
     0
102
RTVSPost2010PropOp28
 70
     1
102
RTVSPost2010Prop29
280
     1
102
RTVSPost2010PropOp29
 70
     1
102
RTVSPost2010Prop30
280
     1
102
RTVSPost2010PropOp30
 70
     1
102
RTVSPost2010Prop31
280
     0
102
RTVSPost2010PropOp31
 70
     1
102
RTVSPost2010Prop32
280
     0
102
RTVSPost2010PropOp32
 70
     1
102
RTVSPost2010Prop33
280
     0
102
RTVSPost2010PropOp33
 70
     1
102
RTVSPost2010Prop34
280
     0
102
RTVSPost2010PropOp34
 70
     1
102
RTVSPost2010Prop35
280
     0
102
RTVSPost2010PropOp35
 70
     1
102
RTVSPost2010Prop36
280
     0
102
RTVSPost2010PropOp36
 70
     1
102
RTVSPost2010Prop37
 90
       50
102
RTVSPost2010PropOp37
 70
     1
102
RTVSPost2010Prop38
140
0.0
102
RTVSPost2010PropOp38
 70
     1
102
RTVSPost2010Prop39
140
1.0
102
RTVSPost2010PropOp39
 70
     1
102
RTVSPost2010Prop40
 90
        0
102
RTVSPost2010PropOp40
 70
     1
102
RTVSPost2010Prop41ColorIndex
 90
       18
102
RTVSPost2010Prop41ColorRGB
 90
        0
102
RTVSPost2010PropOp41
 70
     1
102
RTVSPost2010Prop42
 90
       50
102
RTVSPost2010PropOp42
 70
     1
102
RTVSPost2010Prop43
 90
        3
102
RTVSPost2010PropOp43
 70
     1
102
RTVSPost2010Prop44ColorIndex
 90
        5
102
RTVSPost2010Prop44ColorRGB
 90
      255
102
RTVSPost2010PropOp44
 70
     1
102
RTVSPost2010Prop45
280
     0
102
RTVSPost2010PropOp45
 70
     1
102
RTVSPost2010Prop46
 90
       50
102
RTVSPost2010PropOp46
 70
     1
102
RTVSPost2010Prop47
 90
       50
102
RTVSPost2010PropOp47
 70
     1
102
RTVSPost2010Prop48
 90
       50
102
RTVSPost2010PropOp48
 70
     1
102
RTVSPost2010Prop49
280
     0
102
RTVSPost2010PropOp49
 70
     1
102
RTVSPost2010Prop50
 90
       50
102
RTVSPost2010PropOp50
 70
     1
102
RTVSPost2010Prop51ColorIndex
 90
      256
102
RTVSPost2010Prop51ColorRGB
 90
-16777216
102
RTVSPost2010PropOp51
 70
     0
102
RTVSPost2010Prop52
140
1.0
102
RTVSPost2010PropOp52
 70
     0
102
RTVSPost2010Prop53
 90
        2
102
RTVSPost2010PropOp53
 70
     1
102
RTVSPost2010Prop54
  1
strokes_ogs.tif
102
RTVSPost2010PropOp54
 70
     1
102
RTVSPost2010Prop55
280
     0
102
RTVSPost2010PropOp55
 70
     1
102
RTVSPost2010Prop56
140
1.0
102
RTVSPost2010PropOp56
 70
     1
102
RTVSPost2010Prop57
140
1.0
102
RTVSPost2010PropOp57
 70
     1
  0
XRECORD
  5
2D8
102
{ACAD_REACTORS
330
2D7
102
}
330
2D7
100
AcDbXrecord
280
     1
102
RTVSPropertyOp0
 70
     1
102
RTVSPropertyOp1
 70
     1
102
RTVSPropertyOp2
 70
     1
102
RTVSPropertyOp3
 70
     1
102
RTVSPropertyOp4
 70
     1
102
RTVSPropertyOp5
 70
     1
102
RTVSPropertyOp6
 70
     1
102
RTVSPropertyOp7
 70
     1
102
RTVSPropertyOp8
 70
     1
102
RTVSPropertyOp9
 70
     1
102
RTVSPropertyOp10
 70
     1
102
RTVSPropertyOp11
 70
     1
102
RTVSPropertyOp12
 70
     1
102
RTVSPropertyOp13
 70
     1
102
RTVSPropertyOp14
 70
     1
102
RTVSPropertyOp15
 70
     1
102
RTVSPropertyOp16
 70
     1
102
RTVSPropertyOp17
 70
     1
102
RTVSPropertyOp18
 70
     1
102
RTVSPropertyOp19
 70
     1
102
RTVSPropertyOp20
 70
     1
102
RTVSPropertyOp21
 70
     1
102
RTVSPropertyOp22
 70
     1
102
RTVSPropertyOp23
 70
     1
102
RTVSPropertyOp24
 70
     1
102
RTVSPropertyOp25
 70
     1
102
RTVSPropertyOp26
 70
     1
102
RTVSPropertyOp27
 70
     1
102
RTVSPropertyOp28
 70
     1
102
RTVSPropertyOp29
 70
     1
102
RTVSPropertyOp30
 70
     1
102
RTVSPropertyOp31
 70
     1
102
RTVSPropertyOp32
 70
     1
102
RTVSPropertyOp33
 70
     1
102
RTVSPropertyOp34
 70
     1
102
RTVSPropertyOp35
 70
     1
102
RTVSPropertyOp36
 70
     1
102
RTVSPropertyOp37
 70
     1
102
RTVSPropertyOp38
 70
     1
102
RTVSPropertyOp39
 70
     1
102
RTVSPropertyOp40
 70
     1
102
RTVSPropertyOp41
 70
     1
102
RTVSPropertyOp42
 70
     1
102
RTVSPropertyOp43
 70
     1
102
RTVSPropertyOp44
 70
     1
102
RTVSPropertyOp45
 70
     1
102
RTVSPropertyOp46
 70
     1
102
RTVSPropertyOp47
 70
     1
102
RTVSPropertyOp48
 70
     1
102
RTVSPropertyOp49
 70
     1
102
RTVSPropertyOp50
 70
     1
102
RTVSPropertyOp51
 70
     0
102
RTVSPropertyOp52
 70
     0
102
RTVSPropertyOp53
 70
     1
102
RTVSPropertyOp54
 70
     1
102
RTVSPropertyOp55
 70
     1
102
RTVSPropertyOp56
 70
     1
102
RTVSPropertyOp57
 70
     1
102
RTVSPost2010Prop28
280
     0
102
RTVSPost2010PropOp28
 70
     1
102
RTVSPost2010Prop29
280
     1
102
RTVSPost2010PropOp29
 70
     1
102
RTVSPost2010Prop30
280
     1
102
RTVSPost2010PropOp30
 70
     1
102
RTVSPost2010Prop31
280
     0
102
RTVSPost2010PropOp31
 70
     1
102
RTVSPost2010Prop32
280
     0
102
RTVSPost2010PropOp32
 70
     1
102
RTVSPost2010Prop33
280
     0
102
RTVSPost2010PropOp33
 70
     1
102
RTVSPost2010Prop34
280
     0
102
RTVSPost2010PropOp34
 70
     1
102
RTVSPost2010Prop35
280
     0
102
RTVSPost2010PropOp35
 70
     1
102
RTVSPost2010Prop36
280
     0
102
RTVSPost2010PropOp36
 70
     1
102
RTVSPost2010Prop37
 90
       50
102
RTVSPost2010PropOp37
 70
     1
102
RTVSPost2010Prop38
140
0.0
102
RTVSPost2010PropOp38
 70
     1
102
RTVSPost2010Prop39
140
1.0
102
RTVSPost2010PropOp39
 70
     1
102
RTVSPost2010Prop40
 90
        0
102
RTVSPost2010PropOp40
 70
     1
102
RTVSPost2010Prop41ColorIndex
 90
       18
102
RTVSPost2010Prop41ColorRGB
 90
        0
102
RTVSPost2010PropOp41
 70
     1
102
RTVSPost2010Prop42
 90
       50
102
RTVSPost2010PropOp42
 70
     1
102
RTVSPost2010Prop43
 90
        3
102
RTVSPost2010PropOp43
 70
     1
102
RTVSPost2010Prop44ColorIndex
 90
        5
102
RTVSPost2010Prop44ColorRGB
 90
      255
102
RTVSPost2010PropOp44
 70
     1
102
RTVSPost2010Prop45
280
     0
102
RTVSPost2010PropOp45
 70
     1
102
RTVSPost2010Prop46
 90
       50
102
RTVSPost2010PropOp46
 70
     1
102
RTVSPost2010Prop47
 90
       50
102
RTVSPost2010PropOp47
 70
     1
102
RTVSPost2010Prop48
 90
       50
102
RTVSPost2010PropOp48
 70
     1
102
RTVSPost2010Prop49
280
     0
102
RTVSPost2010PropOp49
 70
     1
102
RTVSPost2010Prop50
 90
       50
102
RTVSPost2010PropOp50
 70
     1
102
RTVSPost2010Prop51ColorIndex
 90
      256
102
RTVSPost2010Prop51ColorRGB
 90
-16777216
102
RTVSPost2010PropOp51
 70
     0
102
RTVSPost2010Prop52
140
1.0
102
RTVSPost2010PropOp52
 70
     0
102
RTVSPost2010Prop53
 90
        2
102
RTVSPost2010PropOp53
 70
     1
102
RTVSPost2010Prop54
  1
strokes_ogs.tif
102
RTVSPost2010PropOp54
 70
     1
102
RTVSPost2010Prop55
280
     0
102
RTVSPost2010PropOp55
 70
     1
102
RTVSPost2010Prop56
140
1.0
102
RTVSPost2010PropOp56
 70
     1
102
RTVSPost2010Prop57
140
1.0
102
RTVSPost2010PropOp57
 70
     1
  0
XRECORD
  5
2F8
102
{ACAD_REACTORS
330
2F7
102
}
330
2F7
100
AcDbXrecord
280
     1
102
RTVSPropertyOp0
 70
     1
102
RTVSPropertyOp1
 70
     1
102
RTVSPropertyOp2
 70
     1
102
RTVSPropertyOp3
 70
     1
102
RTVSPropertyOp4
 70
     1
102
RTVSPropertyOp5
 70
     1
102
RTVSPropertyOp6
 70
     1
102
RTVSPropertyOp7
 70
     1
102
RTVSPropertyOp8
 70
     1
102
RTVSPropertyOp9
 70
     1
102
RTVSPropertyOp10
 70
     1
102
RTVSPropertyOp11
 70
     1
102
RTVSPropertyOp12
 70
     1
102
RTVSPropertyOp13
 70
     1
102
RTVSPropertyOp14
 70
     1
102
RTVSPropertyOp15
 70
     1
102
RTVSPropertyOp16
 70
     1
102
RTVSPropertyOp17
 70
     1
102
RTVSPropertyOp18
 70
     1
102
RTVSPropertyOp19
 70
     1
102
RTVSPropertyOp20
 70
     1
102
RTVSPropertyOp21
 70
     1
102
RTVSPropertyOp22
 70
     1
102
RTVSPropertyOp23
 70
     1
102
RTVSPropertyOp24
 70
     1
102
RTVSPropertyOp25
 70
     1
102
RTVSPropertyOp26
 70
     1
102
RTVSPropertyOp27
 70
     1
102
RTVSPropertyOp28
 70
     1
102
RTVSPropertyOp29
 70
     1
102
RTVSPropertyOp30
 70
     1
102
RTVSPropertyOp31
 70
     1
102
RTVSPropertyOp32
 70
     1
102
RTVSPropertyOp33
 70
     1
102
RTVSPropertyOp34
 70
     1
102
RTVSPropertyOp35
 70
     1
102
RTVSPropertyOp36
 70
     1
102
RTVSPropertyOp37
 70
     1
102
RTVSPropertyOp38
 70
     1
102
RTVSPropertyOp39
 70
     1
102
RTVSPropertyOp40
 70
     1
102
RTVSPropertyOp41
 70
     1
102
RTVSPropertyOp42
 70
     1
102
RTVSPropertyOp43
 70
     1
102
RTVSPropertyOp44
 70
     1
102
RTVSPropertyOp45
 70
     1
102
RTVSPropertyOp46
 70
     1
102
RTVSPropertyOp47
 70
     1
102
RTVSPropertyOp48
 70
     1
102
RTVSPropertyOp49
 70
     1
102
RTVSPropertyOp50
 70
     1
102
RTVSPropertyOp51
 70
     0
102
RTVSPropertyOp52
 70
     0
102
RTVSPropertyOp53
 70
     1
102
RTVSPropertyOp54
 70
     1
102
RTVSPropertyOp55
 70
     1
102
RTVSPropertyOp56
 70
     1
102
RTVSPropertyOp57
 70
     1
102
RTVSPost2010Prop28
280
     0
102
RTVSPost2010PropOp28
 70
     1
102
RTVSPost2010Prop29
280
     1
102
RTVSPost2010PropOp29
 70
     1
102
RTVSPost2010Prop30
280
     1
102
RTVSPost2010PropOp30
 70
     1
102
RTVSPost2010Prop31
280
     0
102
RTVSPost2010PropOp31
 70
     1
102
RTVSPost2010Prop32
280
     0
102
RTVSPost2010PropOp32
 70
     1
102
RTVSPost2010Prop33
280
     0
102
RTVSPost2010PropOp33
 70
     1
102
RTVSPost2010Prop34
280
     0
102
RTVSPost2010PropOp34
 70
     1
102
RTVSPost2010Prop35
280
     0
102
RTVSPost2010PropOp35
 70
     1
102
RTVSPost2010Prop36
280
     0
102
RTVSPost2010PropOp36
 70
     1
102
RTVSPost2010Prop37
 90
       50
102
RTVSPost2010PropOp37
 70
     1
102
RTVSPost2010Prop38
140
0.0
102
RTVSPost2010PropOp38
 70
     1
102
RTVSPost2010Prop39
140
1.0
102
RTVSPost2010PropOp39
 70
     1
102
RTVSPost2010Prop40
 90
        0
102
RTVSPost2010PropOp40
 70
     1
102
RTVSPost2010Prop41ColorIndex
 90
       18
102
RTVSPost2010Prop41ColorRGB
 90
        0
102
RTVSPost2010PropOp41
 70
     1
102
RTVSPost2010Prop42
 90
       50
102
RTVSPost2010PropOp42
 70
     1
102
RTVSPost2010Prop43
 90
        3
102
RTVSPost2010PropOp43
 70
     1
102
RTVSPost2010Prop44ColorIndex
 90
        5
102
RTVSPost2010Prop44ColorRGB
 90
      255
102
RTVSPost2010PropOp44
 70
     1
102
RTVSPost2010Prop45
280
     0
102
RTVSPost2010PropOp45
 70
     1
102
RTVSPost2010Prop46
 90
       50
102
RTVSPost2010PropOp46
 70
     1
102
RTVSPost2010Prop47
 90
       50
102
RTVSPost2010PropOp47
 70
     1
102
RTVSPost2010Prop48
 90
       50
102
RTVSPost2010PropOp48
 70
     1
102
RTVSPost2010Prop49
280
     0
102
RTVSPost2010PropOp49
 70
     1
102
RTVSPost2010Prop50
 90
       50
102
RTVSPost2010PropOp50
 70
     1
102
RTVSPost2010Prop51ColorIndex
 90
      256
102
RTVSPost2010Prop51ColorRGB
 90
-16777216
102
RTVSPost2010PropOp51
 70
     0
102
RTVSPost2010Prop52
140
1.0
102
RTVSPost2010PropOp52
 70
     0
102
RTVSPost2010Prop53
 90
        2
102
RTVSPost2010PropOp53
 70
     1
102
RTVSPost2010Prop54
  1
strokes_ogs.tif
102
RTVSPost2010PropOp54
 70
     1
102
RTVSPost2010Prop55
280
     0
102
RTVSPost2010PropOp55
 70
     1
102
RTVSPost2010Prop56
140
1.0
102
RTVSPost2010PropOp56
 70
     1
102
RTVSPost2010Prop57
140
1.0
102
RTVSPost2010PropOp57
 70
     1
  0
ENDSEC
  0
EOF
